Crossfire (Edward Dmytryk, 1947) Ver índice

Puntuación
7,7/10
3 votos

Encrucijada de odios

Moderador: mifune

Responder
Avatar de Usuario
locotus
 
Mensajes: 1059
Registrado: 16 Oct 2012 18:18
Agradecido : 62 veces
Agradecimiento recibido: 6422 veces

Re: Crossfire (Edward Dmytryk, 1947) DVDRip Dual SE

Mensaje por locotus » 02 Nov 2016 19:23

Si alguien tiene interés en descargarse el DVD NTSC sobre el que se realizó este ripeo, aún el torrent tiene
un par de semillas. Y puede descargarse de esta página:

http://extratorrent.cc/torrent/5254946/ ... DR%5D.html
“Si no lees los periódicos estás desinformado”.
Y si los lees estás mal informado”.
Denzel Washington.

fruega
 
Mensajes: 504
Registrado: 19 Oct 2012 20:41
Agradecimiento recibido: 188 veces

Re: Crossfire (Edward Dmytryk, 1947) DVDRip Dual SE

Mensaje por fruega » 02 Nov 2016 19:51

Muchas gracias.

jail
 
Mensajes: 6276
Registrado: 18 Oct 2012 15:34
Agradecido : 6875 veces
Agradecimiento recibido: 1952 veces

Re: Crossfire (Edward Dmytryk, 1947) DVDRip Dual SE

Mensaje por jail » 02 Nov 2016 20:23

Gracias, locotus. Una buena pieza esta que nos traes, con los tres Robert en portada. Y de postre, Gloria Grahame.

Avatar de Usuario
sete
 
Mensajes: 4716
Registrado: 22 Dic 2012 16:10
Agradecido : 239 veces
Agradecimiento recibido: 1475 veces

Re: Crossfire (Edward Dmytryk, 1947) DVDRip Dual SE

Mensaje por sete » 03 Nov 2016 17:01

Muchas gracias, locotus.
:hi:
Este mundo está traicionando a la vida.
José Luis Sampedro

Avatar de Usuario
locotus
 
Mensajes: 1059
Registrado: 16 Oct 2012 18:18
Agradecido : 62 veces
Agradecimiento recibido: 6422 veces

Estados Unidos Crossfire (Edward Dmytryk, 1947) BRRip Trial SE-SI

Mensaje por locotus » 27 Mar 2021 22:20

chuschao escribió:
14 Sep 2012 21:14
Índice de Ripeos: -
DVDRip VOSE + Aud.Esp. publicado por chuscao
DVDRip Dual SE publicado por locotus

*Nota: Tenga en cuenta la calidad de cada ripeo para hacer la mejor elección. Haga click aquí para más información.
Imagen

Imagen


Encrucijada de odios.


Uno de los clásicos del cine-negro por méritos propios: Oscuridad física y conceptual, informaciones cruzadas y sesgadas, continuos flash-backs, fotografía cruda y contrastada, interpretación de una fisicidad descarnada, además de una profunda, profusa y despiadada critica social. Poco más hay que añadir. Y mucho que disfrutar.

Directed by Edward Dmytryk
Writing Credits:
John Paxton ... (screenplay)
Richard Brooks ... (adapted from a novel by)

Cast:
Robert Young ... Finlay
Robert Mitchum ... Keeley
Robert Ryan ... Montgomery
Gloria Grahame ... Ginny
Paul Kelly ... The Man
Sam Levene ... Samuels
Jacqueline White... Mary Mitchell
Steve Brodie ... Floyd
George Cooper ... Mitchell
Richard Benedict... Bill
Technical Specs
Runtime: 86 min
Sound Mix: Mono (RCA Sound System)
Color: Black and White
Aspect Ratio: 1.37 : 1

https://www.imdb.com/title/tt0039286/
Capturas:
ImagenImagenImagen

ImagenImagenImagen


Datos:

Código: Seleccionar todo

General
Unique ID                   : 151315717848636691584259199290100698659 (0x71D658E27FF866CA410BCC3F0E7C4E23)
Complete name               :Crossfire.1947.1080p.BluRay.Trial-HANDJOB.mkv
Format                      : Matroska
Format version              : Version 4
File size                   : 7.28 GiB
Duration                    : 1 h 25 min
Overall bit rate            : 12.2 Mb/s
Movie name                  : Crossfire [1947] 1080p BluRay - HJ
Encoded date                : UTC 2021-03-27 20:59:56
Writing application         : mkvmerge v55.0.0 ('Waiting For Space') 64-bit
Writing library             : libebml v1.4.2 + libmatroska v1.6.4
Attachments                 : Dore Schary.jpg / Encrucijada de odios.jpg / Crossfire 2.jpg / Crossfire.jpg

Video
ID                          : 1
Format                      : AVC
Format/Info                 : Advanced Video Codec
Format profile              : High@L4.1
Format settings             : CABAC / 5 Ref Frames
Format settings, CABAC      : Yes
Format settings, Reference  : 5 frames
Codec ID                    : V_MPEG4/ISO/AVC
Duration                    : 1 h 25 min
Bit rate                    : 11.9 Mb/s
Width                       : 1 480 pixels
Height                      : 1 080 pixels
Display aspect ratio        : 1.370
Frame rate mode             : Constant
Frame rate                  : 23.976 (24000/1001) FPS
Color space                 : YUV
Chroma subsampling          : 4:2:0
Bit depth                   : 8 bits
Scan type                   : Progressive
Bits/(Pixel*Frame)          : 0.310
Stream size                 : 7.11 GiB (98%)
Writing library             : x264 core 157 r2935 545de2f
Encoding settings           : cabac=1 / ref=5 / deblock=1:-3:-3 / analyse=0x3:0x133 / me=umh / subme=10 / psy=1 / psy_rd=1.00:0.00 / mixed_ref=1 / me_range=32 / chroma_me=1 / trellis=2 / 8x8dct=1 / cqm=0 / deadzone=21,11 / fast_pskip=0 / chroma_qp_offset=-2 / threads=34 / lookahead_threads=8 / sliced_threads=0 / nr=0 / decimate=0 / interlaced=0 / bluray_compat=0 / constrained_intra=0 / bframes=16 / b_pyramid=2 / b_adapt=2 / b_bias=0 / direct=3 / weightb=1 / open_gop=0 / weightp=2 / keyint=240 / keyint_min=24 / scenecut=40 / intra_refresh=0 / rc_lookahead=60 / rc=crf / mbtree=0 / crf=21.8 / qcomp=0.60 / qpmin=0 / qpmax=69 / qpstep=4 / vbv_maxrate=62500 / vbv_bufsize=78125 / crf_max=0.0 / nal_hrd=none / filler=0 / ip_ratio=1.40 / pb_ratio=1.30 / aq=2:1.00
Default                     : Yes
Forced                      : No
Color range                 : Limited
Color primaries             : BT.709
Transfer characteristics    : BT.709
Matrix coefficients         : BT.709

Audio #1
ID                          : 2
Format                      : AAC LC
Format/Info                 : Advanced Audio Codec Low Complexity
Codec ID                    : A_AAC-2
Duration                    : 1 h 25 min
Bit rate                    : 96.0 kb/s
Channel(s)                  : 2 channels
Channel layout              : L R
Sampling rate               : 48.0 kHz
Frame rate                  : 46.875 FPS (1024 SPF)
Compression mode            : Lossy
Delay relative to video     : -12 ms
Stream size                 : 58.8 MiB (1%)
Language                    : English
Default                     : Yes
Forced                      : No

Audio #2
ID                          : 3
Format                      : AAC LC
Format/Info                 : Advanced Audio Codec Low Complexity
Codec ID                    : A_AAC-2
Duration                    : 1 h 25 min
Bit rate                    : 96.0 kb/s
Channel(s)                  : 2 channels
Channel layout              : L R
Sampling rate               : 48.0 kHz
Frame rate                  : 46.875 FPS (1024 SPF)
Compression mode            : Lossy
Delay relative to video     : -14 ms
Stream size                 : 58.8 MiB (1%)
Language                    : Spanish
Default                     : No
Forced                      : No

Audio #3
ID                          : 4
Format                      : AAC LC
Format/Info                 : Advanced Audio Codec Low Complexity
Codec ID                    : A_AAC-2
Duration                    : 1 h 25 min
Bit rate                    : 96.0 kb/s
Channel(s)                  : 2 channels
Channel layout              : L R
Sampling rate               : 48.0 kHz
Frame rate                  : 46.875 FPS (1024 SPF)
Compression mode            : Lossy
Delay relative to video     : -8 ms
Stream size                 : 58.8 MiB (1%)
Language                    : Spanish
Default                     : No
Forced                      : No

Text #1
ID                          : 5
Format                      : UTF-8
Codec ID                    : S_TEXT/UTF8
Codec ID/Info               : UTF-8 Plain Text
Duration                    : 9 s 768 ms
Bit rate                    : 168 b/s
Count of elements           : 3
Stream size                 : 206 Bytes (0%)
Title                       : Forzados doblaje 1970
Language                    : Spanish
Default                     : Yes
Forced                      : No

Text #2
ID                          : 6
Format                      : UTF-8
Codec ID                    : S_TEXT/UTF8
Codec ID/Info               : UTF-8 Plain Text
Duration                    : 1 h 7 min
Bit rate                    : 0 b/s
Count of elements           : 4
Stream size                 : 226 Bytes (0%)
Title                       : Forzados doblaje 1992
Language                    : Spanish
Default                     : No
Forced                      : No

Text #3
ID                          : 7
Format                      : UTF-8
Codec ID                    : S_TEXT/UTF8
Codec ID/Info               : UTF-8 Plain Text
Duration                    : 1 h 24 min
Bit rate                    : 84 b/s
Count of elements           : 1165
Stream size                 : 52.0 KiB (0%)
Language                    : Spanish
Default                     : No
Forced                      : No

Text #4
ID                          : 8
Format                      : UTF-8
Codec ID                    : S_TEXT/UTF8
Codec ID/Info               : UTF-8 Plain Text
Duration                    : 1 h 22 min
Bit rate                    : 86 b/s
Count of elements           : 1158
Stream size                 : 52.1 KiB (0%)
Language                    : English
Default                     : No
Forced                      : No

Menu
00:00:00.054                : en:Chapter 01 / en:Chapter 01
Ripeo de Hanjob, video untouched, audios españoles doblajes de 1970-TVE y 1990-DVD y subtitulos tomados del ripeo de loga+caruso+javisambo.

eD2K link Crossfire.1947.1080p.BluRay.Trial-HANDJOB.mkv [7.28 Gb] 
“Si no lees los periódicos estás desinformado”.
Y si los lees estás mal informado”.
Denzel Washington.

Avatar de Usuario
DMMD
 
Mensajes: 651
Registrado: 16 Oct 2012 15:35
Agradecido : 672 veces
Agradecimiento recibido: 3358 veces

Estados Unidos Crossfire (Edward Dmytryk, 1947) BDRip 720p Trial SE

Mensaje por DMMD » 02 Abr 2021 00:34

Crossfire

Edward Dmytryk, 1947


Imagen

Imagen


Encrucijada de odios




Título original Crossfire
Año 1947
Duración 85 min.
País Imagen
Dirección Edward Dmytryk
Guion John Paxton (Novela: Richard Brooks)
Música Roy Webb
Fotografía J. Roy Hunt (B&W)
Reparto
Robert Mitchum, Robert Young, Robert Ryan, Gloria Grahame, Sam Levene, Paul Kelly, Jacqueline White, Steve Brodie

Productora RKO Radio Pictures
Género Cine negro. Intriga
Sinopsis
Un hombre aparece muerto en su apartamento, después de haber recibido una paliza mortal. Una amiga suya le confiesa al policía encargado del caso, que, poco antes de su muerte, había visto a la víctima en compañía de tres soldados, bebiendo en un bar. Precisamente la documentación de uno de ellos había aparecido junto al cadáver. El caso se presenta sumamente denso y turbio. (FILMAFFINITY)

Premios
1947: 5 nominaciones Oscar: Película, director, actor sec. (Ryan), actriz sec. (Grahame), guión
1947: Festival de Cannes: Mejor película social
1947: Círculo de Críticos de Nueva York: Nominada a mejor película y mejor director
1948: Premios BAFTA: Nominada a mejor película






Vídeo:

- Encode a partir de la edición de Bluray 4K Restoration (Warner Archive Collection)

Imagen Imagen Imagen Imagen Imagen Imagen Imagen Imagen Imagen Imagen Imagen Imagen Imagen Imagen


Con respecto a la restauración poco que comentar, las imágenes hablan por sí solas, Robert lo explica mejor, en unas pocas palabras. :mrgreen:

A few words about…™ Crossfire – in Blu-ray
Spoiler:

Warner Archive is releasing Crossfire, a 1947 RKO production, directed by Edward Dmytryk, in their normal boring quality, which means virtually perfect.

Lush black and white, with a patina of film grain give the impression that one is viewing a nitrate 35mm print.

The only digital oddity that I noted was in the second scene - and what a scene it is - with wonderful reveals and use of camera - where Robert Young's heavily herringboned suit can't quite handle the digital clean-up in some nearly hidden folds.

Will anyone notice this?

Absolutely not.

For lovers of noir, who may not have seen Crossfire, it's a must, especially in this newly restored Blu-ray varient.

I neglected to make note of an interesting cast. Robert Ryan, Gloria Grahame and Robert Mitchum. So for completists, this is a goldmine of actors.

Image – 5

Audio – 5

Pass / Fail – Pass

Upgrade from DVD – Yes

Highly Recommended

RAH

https://www.hometheaterforum.com/commun ... st-4974379

Código: Seleccionar todo

General
Unique ID                                : 217812995396914276647888510326669374926 (0xA3DD41CB7BBD5942746F0D2DC4A0F5CE)
Complete name                            : D:\Incoming\1947-Crossfire.BRx264.720p.AAC.AC3.(DMMD).mkv
Format                                   : Matroska
Format version                           : Version 4
File size                                : 5.78 GiB
Duration                                 : 1 h 25 min
Overall bit rate                         : 9 661 kb/s
Movie name                               : 1947-Crossfire.BRx264.720p.AAC.AC3(DMMD)
Encoded date                             : UTC 2021-04-01 13:20:23
Writing application                      : mkvmerge v55.0.0 ('Waiting For Space') 64-bit
Writing library                          : libebml v1.4.2 + libmatroska v1.6.4
Attachments                              : 1 / 2 / 3 / 4 / 5

Video
ID                                       : 1
Format                                   : AVC
Format/Info                              : Advanced Video Codec
Format profile                           : High@L4.1
Format settings                          : CABAC / 11 Ref Frames
Format settings, CABAC                   : Yes
Format settings, Reference frames        : 11 frames
Codec ID                                 : V_MPEG4/ISO/AVC
Duration                                 : 1 h 25 min
Bit rate                                 : 9 113 kb/s
Width                                    : 986 pixels
Height                                   : 720 pixels
Display aspect ratio                     : 4:3
Frame rate mode                          : Constant
Frame rate                               : 23.976 (24000/1001) FPS
Color space                              : YUV
Chroma subsampling                       : 4:2:0
Bit depth                                : 8 bits
Scan type                                : Progressive
Bits/(Pixel*Frame)                       : 0.535
Stream size                              : 5.45 GiB (94%)
Title                                    : Warner Archive (4K restoration)
Writing library                          : x264 core 152 r2851kMod ba24899
Encoding settings                        : cabac=1 / ref=11 / deblock=1:-3:-3 / analyse=0x3:0x133 / me=umh / subme=11 / psy=1 / fade_compensate=0.00 / psy_rd=1.05:0.00 / mixed_ref=1 / me_range=24 / chroma_me=1 / trellis=2 / 8x8dct=1 / cqm=0 / deadzone=21,11 / fast_pskip=0 / chroma_qp_offset=-2 / threads=6 / lookahead_threads=1 / sliced_threads=0 / nr=0 / decimate=0 / interlaced=0 / bluray_compat=0 / constrained_intra=0 / bframes=8 / b_pyramid=2 / b_adapt=2 / b_bias=0 / direct=3 / weightb=1 / open_gop=0 / weightp=2 / keyint=250 / keyint_min=23 / scenecut=40 / intra_refresh=0 / rc=crf / mbtree=0 / crf=19.0000 / qcomp=0.70 / qpmin=0 / qpmax=69 / qpstep=4 / ip_ratio=1.30 / pb_ratio=1.20 / aq=3:0.60
Language                                 : English
Default                                  : Yes
Forced                                   : No

Audio #1
ID                                       : 2
Format                                   : AAC LC
Format/Info                              : Advanced Audio Codec Low Complexity
Codec ID                                 : A_AAC-2
Duration                                 : 1 h 25 min
Bit rate                                 : 160 kb/s
Channel(s)                               : 2 channels
Channel layout                           : L R
Sampling rate                            : 48.0 kHz
Frame rate                               : 46.875 FPS (1024 SPF)
Compression mode                         : Lossy
Delay relative to video                  : 9 ms
Stream size                              : 97.9 MiB (2%)
Language                                 : English
Default                                  : Yes
Forced                                   : No

Audio #2
ID                                       : 3
Format                                   : AC-3
Format/Info                              : Audio Coding 3
Commercial name                          : Dolby Digital
Codec ID                                 : A_AC3
Duration                                 : 1 h 25 min
Bit rate mode                            : Constant
Bit rate                                 : 192 kb/s
Channel(s)                               : 2 channels
Channel layout                           : L R
Sampling rate                            : 48.0 kHz
Frame rate                               : 31.250 FPS (1536 SPF)
Compression mode                         : Lossy
Stream size                              : 118 MiB (2%)
Title                                    : Doblaje 1970
Language                                 : Spanish
Service kind                             : Complete Main
Default                                  : No
Forced                                   : No

Audio #3
ID                                       : 4
Format                                   : AC-3
Format/Info                              : Audio Coding 3
Commercial name                          : Dolby Digital
Codec ID                                 : A_AC3
Duration                                 : 1 h 25 min
Bit rate mode                            : Constant
Bit rate                                 : 192 kb/s
Channel(s)                               : 2 channels
Channel layout                           : L R
Sampling rate                            : 48.0 kHz
Frame rate                               : 31.250 FPS (1536 SPF)
Compression mode                         : Lossy
Stream size                              : 118 MiB (2%)
Title                                    : Doblaje 1992
Language                                 : Spanish
Service kind                             : Complete Main
Default                                  : No
Forced                                   : No

Text #1
ID                                       : 5
Format                                   : UTF-8
Codec ID                                 : S_TEXT/UTF8
Codec ID/Info                            : UTF-8 Plain Text
Duration                                 : 1 h 24 min
Bit rate                                 : 84 b/s
Count of elements                        : 1165
Stream size                              : 52.0 KiB (0%)
Language                                 : Spanish
Default                                  : No
Forced                                   : No

Text #2
ID                                       : 6
Format                                   : UTF-8
Codec ID                                 : S_TEXT/UTF8
Codec ID/Info                            : UTF-8 Plain Text
Duration                                 : 1 h 7 min
Bit rate                                 : 0 b/s
Count of elements                        : 4
Stream size                              : 226 Bytes (0%)
Title                                    : Forzados
Language                                 : Spanish
Default                                  : No
Forced                                   : No

Text #3
ID                                       : 7
Format                                   : UTF-8
Codec ID                                 : S_TEXT/UTF8
Codec ID/Info                            : UTF-8 Plain Text
Duration                                 : 1 h 23 min
Bit rate                                 : 85 b/s
Count of elements                        : 1157
Stream size                              : 52.3 KiB (0%)
Language                                 : English
Default                                  : No
Forced                                   : No

Menu
00:00:00.000                             : en:Chapter 01
00:01:16.367                             : en:Chapter 02
00:03:50.939                             : en:Chapter 03
00:07:21.315                             : en:Chapter 04
00:12:36.630                             : en:Chapter 05
00:15:40.814                             : en:Chapter 06
00:16:36.161                             : en:Chapter 07
00:19:42.014                             : en:Chapter 08
00:21:47.055                             : en:Chapter 09
00:24:30.802                             : en:Chapter 10
00:27:26.811                             : en:Chapter 11
00:31:06.781                             : en:Chapter 12
00:34:03.332                             : en:Chapter 13
00:38:04.865                             : en:Chapter 14
00:40:36.142                             : en:Chapter 15
00:42:58.117                             : en:Chapter 16
00:46:33.874                             : en:Chapter 17
00:49:26.755                             : en:Chapter 18
00:52:35.944                             : en:Chapter 19
00:53:09.436                             : en:Chapter 20
00:59:17.929                             : en:Chapter 21
01:00:27.749                             : en:Chapter 22
01:01:45.868                             : en:Chapter 23
01:05:43.814                             : en:Chapter 24
01:08:23.474                             : en:Chapter 25
01:13:04.838                             : en:Chapter 26
01:16:08.897                             : en:Chapter 27
01:19:39.357                             : en:Chapter 28
01:23:28.128                             : en:Chapter 29
01:25:18.988                             : en:Chapter 30

Imagen

Encode 720p Vs Dvd Ntsc (DVD Classic)

Imagen
Imagen



Imagen

Audio y subtitulos:

- Para la V.O. audio AAC, pasado del Blu-ray. (English DTS-HD MA 2.0 Mono)

- Para la sincro de los doblajes del 70 y 92 y sub en castellano, he utilizado los proporcionados por loga en su Dvdrip :drinks:

Gracias al propio loga, caruso y javisambo en la parte que les toca . :wink:

Doblaje 1970

Imagen

Doblaje 1992

Imagen


- Subtítulos en inglés pasados del Bluray (.srt)


Imagen




CAPTURAS

Imagen
Imagen
Imagen
Imagen
Imagen
Imagen
Imagen
Imagen
Imagen
Imagen
Imagen


Enlaces de descarga

Imagen

eD2K link 1947-Crossfire.BRx264.720p.AAC.AC3.(DMMD).mkv [5.78 Gb] 


Imagen

Avatar de Usuario
DMMD
 
Mensajes: 651
Registrado: 16 Oct 2012 15:35
Agradecido : 672 veces
Agradecimiento recibido: 3358 veces

Re: Crossfire (Edward Dmytryk, 1947) BDRip 720p Dual SE

Mensaje por DMMD » 02 Abr 2021 00:37

Me di cuenta ayer que locotus ya había compartido un 1080p, tenía entre manos un 720p para divxclasico, lo dejo también por aquí, simplemente otra opción mas. ;)

Avatar de Usuario
Guiller3
 
Mensajes: 981
Registrado: 12 May 2013 03:58
Ubicación: Si eres mujer, búscame en tu corazón. Si eres hombre, me hallarás en tu cabeza.
Agradecido : 397 veces
Agradecimiento recibido: 615 veces

Re: Crossfire (Edward Dmytryk, 1947) BDRip 720p Dual SE

Mensaje por Guiller3 » 02 Abr 2021 02:56

Para mi gusto, una de las mejores películas realizadas por Edward Dmytryk. Magnífico alegato contra el atraso y la discriminación.

Excelente aporte, DMMD.

Avatar de Usuario
tonapar1
 
Mensajes: 5781
Registrado: 16 Oct 2012 20:19
Agradecido : 1143 veces
Agradecimiento recibido: 2002 veces

Re: Crossfire (Edward Dmytryk, 1947) BDRip 720p Dual SE

Mensaje por tonapar1 » 02 Abr 2021 03:00

Muchas gracias por el ripeo. Un saludo.

Avatar de Usuario
gatatitania
 
Mensajes: 5544
Registrado: 16 Oct 2012 18:27
Ubicación: Gatatitania es un gato hambriento, superviviente del planeta gatatitania...
Agradecido : 2917 veces
Agradecimiento recibido: 1731 veces

Re: Crossfire (Edward Dmytryk, 1947) BDRip 720p Dual SE

Mensaje por gatatitania » 02 Abr 2021 17:52

¡Trio de roberts! ¡Gracias, DMMD! :agite: :agite: :agite:

Responder

Volver a “Largos Clásicos”