Ayuda a la descarga

Moderador: mifune

Responder
Avatar de Usuario
Arthur James Hamp
 
Mensajes: 1912
Registrado: 06 May 2016, 11:47
Agradecido : 2680 veces
Agradecimiento recibido: 3056 veces

Re: Ayuda a la descarga

Mensaje por Arthur James Hamp » 16 Mar 2019, 19:25

gilles escribió:
14 Mar 2019, 17:45
gatatitania escribió:
14 Mar 2019, 12:03
¿Alguien puede ayudar con esta?

eD2K link Hossein Abedini, Zahra Bahrami - Baran (Aka Rain)[2001](Farsi-x264 Ac3).mkv [1.46 Gb] 

¡Gracias!
Por si acaso no se descarga pongo este rip en el incoming:
eD2K link Baran.(Le.secret.de.Baran).2001.MajidMajidi.Iran.mkv [1.19 Gb] 
datos técnicos:
Spoiler:
General
Unique ID : 71215255665744203760483388022365340718 (0x35938F30CCE6C3E16936C8172B83C42E)
Complete name : /mnt/20E158B8429961EC/Amule/Baran.(Le.secret.de.Baran).2001.MajidMajidi.Iran.mkv
Format : Matroska
Format version : Version 4 / Version 2
File size : 1.19 GiB
Duration : 1 h 31 min
Overall bit rate : 1 853 kb/s
Encoded date : UTC 2017-02-28 22:32:30
Writing application : mkvmerge v8.8.0 ('Wind at my back') 64bit
Writing library : libebml v1.3.3 + libmatroska v1.4.4

Video
ID : 1
Format : MPEG-4 Visual
Format profile : Advanced Simple@L5
Format settings : BVOP1
Format settings, BVOP : 1
Format settings, QPel : No
Format settings, GMC : No warppoints
Format settings, Matrix : Default (H.263)
Codec ID : V_MS/VFW/FOURCC / XVID
Codec ID/Hint : XviD
Duration : 1 h 31 min
Bit rate : 1 659 kb/s
Width : 704 pixels
Height : 384 pixels
Display aspect ratio : 1.85:1
Frame rate mode : Constant
Frame rate : 25.000 FPS
Color space : YUV
Chroma subsampling : 4:2:0
Bit depth : 8 bits
Scan type : Progressive
Compression mode : Lossy
Bits/(Pixel*Frame) : 0.246
Stream size : 1.06 GiB (90%)
Writing library : XviD 1.2.1 (UTC 2008-12-04)
Default : Yes
Forced : No

Audio
ID : 2
Format : AC-3
Format/Info : Audio Coding 3
Codec ID : A_AC3
Duration : 1 h 31 min
Bit rate mode : Constant
Bit rate : 192 kb/s
Channel(s) : 2 channels
Channel positions : Front: L R
Sampling rate : 48.0 kHz
Frame rate : 31.250 FPS (1536 SPF)
Bit depth : 16 bits
Compression mode : Lossy
Stream size : 126 MiB (10%)
Service kind : Complete Main
Default : Yes
Forced : No

Text
ID : 3
Format : UTF-8
Codec ID : S_TEXT/UTF8
Codec ID/Info : UTF-8 Plain Text
Duration : 1 h 31 min
Bit rate : 31 b/s
Count of elements : 569
Stream size : 21.1 KiB (0%)
Default : Yes
Forced : No
Bajada y compartiendo. :hi:
"Cuando se descubrió que la información era un negocio, la verdad dejó de ser importante" (Ryszard Kapuściński)

Avatar de Usuario
SWZlatan
 
Mensajes: 345
Registrado: 05 Oct 2017, 21:34
Ubicación: Buenos Aires, Argentina
Agradecido : 1102 veces
Agradecimiento recibido: 233 veces

Re: Ayuda a la descarga

Mensaje por SWZlatan » 16 Mar 2019, 23:08

Mercedes escribió:
13 Mar 2019, 19:13
eD2K link Hired wife -1940 William A. Seiter- (Rosalind Russell, Brian Aherne, Virginia Bruce).english.avi [1.23 Gb] 

Descargada y compartiendo. Avisa cuando la tengas. :hi:
No se porque quiere arrancar, esta al 0% y dice 0 fuentes!
Imagen

Avatar de Usuario
Mercedes
 
Mensajes: 2508
Registrado: 16 Oct 2012, 15:03
Ubicación: Un lugar en el Sur
Agradecido : 4753 veces
Agradecimiento recibido: 6827 veces

Re: Ayuda a la descarga

Mensaje por Mercedes » 17 Mar 2019, 08:02

SWZlatan escribió:
16 Mar 2019, 23:08
Mercedes escribió:
13 Mar 2019, 19:13
eD2K link Hired wife -1940 William A. Seiter- (Rosalind Russell, Brian Aherne, Virginia Bruce).english.avi [1.23 Gb] 

Descargada y compartiendo. Avisa cuando la tengas. :hi:
No se porque quiere arrancar, esta al 0% y dice 0 fuentes!
Pues llevas toda la razón, me confundí de peli. También la tengo a 0%. :pse:
Imagen

"Quédate" es una hermosa palabra.

Avatar de Usuario
klevi66
 
Mensajes: 788
Registrado: 12 Nov 2012, 07:27
Ubicación: Siebenburgen(Romania)
Agradecido : 540 veces
Agradecimiento recibido: 1111 veces

Re: Ayuda a la descarga

Mensaje por klevi66 » 18 Mar 2019, 14:54


Avatar de Usuario
Mercedes
 
Mensajes: 2508
Registrado: 16 Oct 2012, 15:03
Ubicación: Un lugar en el Sur
Agradecido : 4753 veces
Agradecimiento recibido: 6827 veces

Re: Ayuda a la descarga

Mensaje por Mercedes » 18 Mar 2019, 17:23

Imagen

"Quédate" es una hermosa palabra.

gilles
 
Mensajes: 533
Registrado: 21 Ene 2013, 11:15
Agradecido : 31 veces
Agradecimiento recibido: 261 veces

Re: Ayuda a la descarga

Mensaje por gilles » 18 Mar 2019, 19:49

klevi66 escribió:
23 Feb 2019, 08:34
Necesito ayuda con esto :

eD2K link Naufrago del Pacifico (Robinson Crusoe) (1951 - r.J.Musso - A.Trilli - G.Marchal).mp4 [1.15 Gb] 

Gracias anticipadas !
Descargada y compartiendo...

Avatar de Usuario
Mercedes
 
Mensajes: 2508
Registrado: 16 Oct 2012, 15:03
Ubicación: Un lugar en el Sur
Agradecido : 4753 veces
Agradecimiento recibido: 6827 veces

Re: Ayuda a la descarga

Mensaje por Mercedes » 18 Mar 2019, 20:17

gilles escribió:
18 Mar 2019, 19:49
klevi66 escribió:
23 Feb 2019, 08:34
Necesito ayuda con esto :

eD2K link Naufrago del Pacifico (Robinson Crusoe) (1951 - r.J.Musso - A.Trilli - G.Marchal).mp4 [1.15 Gb] 

Gracias anticipadas !
Descargada y compartiendo...
Descargada y compartiendo. :hi:
Imagen

"Quédate" es una hermosa palabra.

Avatar de Usuario
klevi66
 
Mensajes: 788
Registrado: 12 Nov 2012, 07:27
Ubicación: Siebenburgen(Romania)
Agradecido : 540 veces
Agradecimiento recibido: 1111 veces

Re: Ayuda a la descarga

Mensaje por klevi66 » 18 Mar 2019, 20:56

[/quote]

Otra propuesta por ayuda :

eD2K link Capitan Fuoco(1958)Carlo Campogalliani - Massimo Serato, Dante Maggio, Lex Barker...ul Müller .mp4 [332.24 Mb] 
[/quote]

Completada . Muchas gracias !

Avatar de Usuario
klevi66
 
Mensajes: 788
Registrado: 12 Nov 2012, 07:27
Ubicación: Siebenburgen(Romania)
Agradecido : 540 veces
Agradecimiento recibido: 1111 veces

Re: Ayuda a la descarga

Mensaje por klevi66 » 18 Mar 2019, 20:57

klevi66 escribió:
23 Feb 2019, 08:34
Necesito ayuda con esto :

eD2K link Naufrago del Pacifico (Robinson Crusoe) (1951 - r.J.Musso - A.Trilli - G.Marchal).mp4 [1.15 Gb] 

Gracias anticipadas !
Completada . Muchas gracias !

Avatar de Usuario
SWZlatan
 
Mensajes: 345
Registrado: 05 Oct 2017, 21:34
Ubicación: Buenos Aires, Argentina
Agradecido : 1102 veces
Agradecimiento recibido: 233 veces

Re: Ayuda a la descarga

Mensaje por SWZlatan » 18 Mar 2019, 22:48

Imagen

Responder

Volver a “Ayuda a la descarga”