Ayuda a la descarga

Moderador: mifune

Responder
Avatar de Usuario
gatatitania
 
Mensajes: 4389
Registrado: 16 Oct 2012, 18:27
Ubicación: Gatatitania es un gato hambriento, superviviente del planeta gatatitania...
Agradecido : 2321 veces
Agradecimiento recibido: 1239 veces

Re: Ayuda a la descarga

Mensaje por gatatitania » 21 Feb 2019, 17:48

Mercedes escribió:
20 Feb 2019, 11:18
gatatitania escribió:
17 Feb 2019, 10:50


Lucrecia Borgia está ya en el 97,4, así que en unos días creo que habrá caído, después de un par de meses bajando

eD2K link Lucrece Borgia (1953).HDTVRip 1080p.Spa and Eng Subt.CFC-VTG.mkv [3.38 Gb] 

Gracias a todos

:hi:

Descargada y compartiendo. :hi:
La tengo desde esta mañana. Muchas gracias a todos. La dejo un tiempo en el incoming

:hi:

Avatar de Usuario
Juramentado
 
Mensajes: 1551
Registrado: 16 Oct 2012, 20:58
Agradecido : 281 veces
Agradecimiento recibido: 463 veces

Re: Ayuda a la descarga

Mensaje por Juramentado » 21 Feb 2019, 18:40

He conseguido que repongan

eD2K link El Inocente. (L'innocente1976) Bdrip +dvdrip By Italoco.mkv [2.84 Gb] 

a ver si se suma alguien más y conseguimos acabarla.

Avatar de Usuario
Arthur James Hamp
 
Mensajes: 1907
Registrado: 06 May 2016, 11:47
Agradecido : 2675 veces
Agradecimiento recibido: 3054 veces

Re: Ayuda a la descarga

Mensaje por Arthur James Hamp » 21 Feb 2019, 21:04

Juramentado escribió:
21 Feb 2019, 18:40
He conseguido que repongan

eD2K link El Inocente. (L'innocente1976) Bdrip +dvdrip By Italoco.mkv [2.84 Gb] 

a ver si se suma alguien más y conseguimos acabarla.
Voy con ella. :hi:
"Cuando se descubrió que la información era un negocio, la verdad dejó de ser importante" (Ryszard Kapuściński)

Avatar de Usuario
fifole
 
Mensajes: 4252
Registrado: 17 Oct 2012, 20:47
Agradecido : 10704 veces
Agradecimiento recibido: 14390 veces

Re: Ayuda a la descarga

Mensaje por fifole » 21 Feb 2019, 21:50

fifole escribió:
19 Feb 2019, 22:00
Tenemos descargada la primera parte, a ver si la segunda la podemos completar y ver la película entera.

eD2K link Ninjitsu 2(Hiroshi Inagaki).DVDrip.AC3.Jose. El Luzu.Allzine.org.avi [1.46 Gb] 
Sin fuentes en la mula, finalmente conseguí un mkv en Patio de Butacas.

gilles
 
Mensajes: 533
Registrado: 21 Ene 2013, 11:15
Agradecido : 31 veces
Agradecimiento recibido: 261 veces

Re: Ayuda a la descarga

Mensaje por gilles » 21 Feb 2019, 22:20

fifole escribió:
21 Feb 2019, 21:50
fifole escribió:
19 Feb 2019, 22:00
Tenemos descargada la primera parte, a ver si la segunda la podemos completar y ver la película entera.

eD2K link Ninjitsu 2(Hiroshi Inagaki).DVDrip.AC3.Jose. El Luzu.Allzine.org.avi [1.46 Gb] 
Sin fuentes en la mula, finalmente conseguí un mkv en Patio de Butacas.
??? Acabo de descargarla ahora mismo, droid la tenia también parece, y la estoy compartiendo... Estas seguro de tu mula?
Aquí los datos del rip:
Spoiler:
General
Complete name : /mnt/20E158B8429961EC/Amule/Ninjitsu 2(Hiroshi Inagaki).DVDrip.AC3.Jose. El Luzu.Allzine.org.avi
Format : AVI
Format/Info : Audio Video Interleave
File size : 1.46 GiB
Duration : 1 h 40 min
Overall bit rate : 2 074 kb/s
Writing application : VirtualDubMod 1.5.10.2 (build 2540/release)
Writing library : VirtualDubMod build 2540/release

Video
ID : 0
Format : MPEG-4 Visual
Format profile : Advanced Simple@L5
Format settings : BVOP1
Format settings, BVOP : 1
Format settings, QPel : No
Format settings, GMC : No warppoints
Format settings, Matrix : Default (MPEG)
Codec ID : XVID
Codec ID/Hint : XviD
Duration : 1 h 40 min
Bit rate : 1 680 kb/s
Width : 720 pixels
Height : 304 pixels
Display aspect ratio : 2.35:1
Frame rate : 25.000 FPS
Color space : YUV
Chroma subsampling : 4:2:0
Bit depth : 8 bits
Scan type : Progressive
Compression mode : Lossy
Bits/(Pixel*Frame) : 0.307
Stream size : 1.18 GiB (81%)
Writing library : XviD 1.1.2 (UTC 2006-11-01)

Audio
ID : 1
Format : AC-3
Format/Info : Audio Coding 3
Codec ID : 2000
Duration : 1 h 40 min
Bit rate mode : Constant
Bit rate : 384 kb/s
Channel(s) : 6 channels
Channel positions : Front: L C R, Side: L R, LFE
Sampling rate : 48.0 kHz
Frame rate : 31.250 FPS (1536 SPF)
Bit depth : 16 bits
Compression mode : Lossy
Stream size : 277 MiB (19%)
Alignment : Split accross interleaves
Interleave, duration : 40 ms (1.00 video frame)
Interleave, preload duration : 500 ms
Service kind : Complete Main
Si te interesa y no puedes descargarla, avísame y te la mando por wetransfer.

Avatar de Usuario
fifole
 
Mensajes: 4252
Registrado: 17 Oct 2012, 20:47
Agradecido : 10704 veces
Agradecimiento recibido: 14390 veces

Re: Ayuda a la descarga

Mensaje por fifole » 21 Feb 2019, 22:51

Casualmente ya ha comenzado a bajar el avi, así que continuaré con la descarga (aunque ya comenté que me descargué un mkv procedente de Patio de Butacas, así que a falta de uno, dos ripeos, mejor que sobre que no que falte, je, je). Muchas gracias por tu ofrecimiento, gilles. :hi:

Avatar de Usuario
klevi66
 
Mensajes: 788
Registrado: 12 Nov 2012, 07:27
Ubicación: Siebenburgen(Romania)
Agradecido : 540 veces
Agradecimiento recibido: 1111 veces

Re: Ayuda a la descarga

Mensaje por klevi66 » 23 Feb 2019, 08:34


Avatar de Usuario
gatatitania
 
Mensajes: 4389
Registrado: 16 Oct 2012, 18:27
Ubicación: Gatatitania es un gato hambriento, superviviente del planeta gatatitania...
Agradecido : 2321 veces
Agradecimiento recibido: 1239 veces

Re: Ayuda a la descarga

Mensaje por gatatitania » 23 Feb 2019, 12:13

Os pedí ayuda para esta y ya ha caído

eD2K link 1958 Hotarubi - Heinosuke Gosho.mkv [1.46 Gb] 

Y también para esta, pero definitivamente, renuncio porque aunque habéis pinchado varios, no se mueve desde octubre

eD2K link 1951 The Life of a Horsetrader - Bakurô ichidai (Keigo Kimura) jap sub eng.mkv [1.65 Gb] 

¡Gracias!

:hi:
Última edición por gatatitania el 05 Mar 2019, 20:01, editado 1 vez en total.

lawyer40ar
 
Mensajes: 25
Registrado: 19 Jul 2013, 21:34
Agradecido : 89 veces
Agradecimiento recibido: 15 veces

Re: Ayuda a la descarga

Mensaje por lawyer40ar » 24 Feb 2019, 12:21

Juramentado escribió:
21 Feb 2019, 18:40
He conseguido que repongan

eD2K link El Inocente. (L'innocente1976) Bdrip +dvdrip By Italoco.mkv [2.84 Gb] 

a ver si se suma alguien más y conseguimos acabarla.
He alcanzado ayer el 95%, pero no se ha movido más, si alguien puede ayudar se agradecerá mucho.

Avatar de Usuario
Arthur James Hamp
 
Mensajes: 1907
Registrado: 06 May 2016, 11:47
Agradecido : 2675 veces
Agradecimiento recibido: 3054 veces

Re: Ayuda a la descarga

Mensaje por Arthur James Hamp » 24 Feb 2019, 12:47

lawyer40ar escribió:
24 Feb 2019, 12:21
Juramentado escribió:
21 Feb 2019, 18:40
He conseguido que repongan

eD2K link El Inocente. (L'innocente1976) Bdrip +dvdrip By Italoco.mkv [2.84 Gb] 

a ver si se suma alguien más y conseguimos acabarla.
He alcanzado ayer el 95%, pero no se ha movido más, si alguien puede ayudar se agradecerá mucho.
Yo la tengo parada al 95,80% desde ayer. :hi:
"Cuando se descubrió que la información era un negocio, la verdad dejó de ser importante" (Ryszard Kapuściński)

Responder

Volver a “Ayuda a la descarga”