Mockery (Benjamin Christensen, 1927) WebRip 1080p VOSE

Ripeos nuevos y/o antiguos, de pelis ya posteadas.

Moderador: mifune

Reglas del Foro
Las puntuaciones están desactivadas en este subforo. Para puntuar debéis ir a cada hilo inicial en sus respectivos foros. Disculpad las molestias.
Responder
Avatar de Usuario
Caolin
 
Mensajes: 443
Registrado: 02 Jul 2015 12:54
Ubicación: Al poniente, mirando a Gredos.
Agradecido : 2606 veces
Agradecimiento recibido: 615 veces

Estados Unidos Mockery (Benjamin Christensen, 1927) WebRip 1080p VOSE

Mensaje por Caolin » 21 Ene 2023 21:56

Mockery
La novela de un mujik


Imagen


IMDB
FILMAFFINITY


Director: Benjamin Christensen

Guion: Benjamin Christensen, Stig Esbern

Fotografía: Merrit B. Gerstad

Año: 1927

Duración: 77 min.

País: Estados Unidos

Producción: Metro-Goldwyn-Mayer



Reparto

Lon Chaney
Barbara Bedford
Ricardo Cortez
Mack Swain
Emily Fitzroy
Károly Huszár
Charles Puffy
Kai Schmidt
Johnny Mack Brown
Albert Conti
Jules Cowles
Frank Leigh



SINOPSIS

La guerra civil y el hambre están causando estragos en Siberia. Un campesino pobre y atrasado se encuentra con la noble rusa Tatjana y, bajo tortura, le salva la vida. Cuando Sergei luego busca a Tatjana para cosechar las recompensas de su acto heroico en forma de amistad, se siente profundamente decepcionado. Está enamorada de otra persona y no quiere tener nada que ver con él. A medida que la lucha se intensifica, Sergei, ahora morbosamente celoso, ve su oportunidad: ¡la revolución hace que todos sean iguales y Tatjana finalmente puede pertenecerle!


Datos técnicos

Código: Seleccionar todo

Complete name :Christensen Benjamin/1927-Mockery-Christensen-(WebRip.1080p).mkv
Format :Matroska
Format version :Version 4
File size :2.83 GiB
Duration :1 h 17 min
Overall bit rate :5 234 kb/s
Encoded date :UTC 2023-01-21 18:46:03
Writing application :mkvmerge v73.0.0 ('25 or 6 to 4') 64-bit
Writing library :libebml v1.4.4 + libmatroska v1.7.1

Video
ID :1
Format :AVC
Format/Info :Advanced Video Codec
Format profile :High@L4.2
Format settings :CABAC / 5 Ref Frames
Format settings, CABAC :Yes
Format settings, ReFrames :5 frames
Codec ID :V_MPEG4/ISO/AVC
Duration :1 h 17 min
Bit rate :5 043 kb/s
Width :1 920 pixels
Height :1 080 pixels
Display aspect ratio :16:9
Frame rate mode :Constant
Frame rate :24.000 FPS
Color space :YUV
Chroma subsampling :4:2:0
Bit depth :8 bits
Scan type :Progressive
Bits/(Pixel*Frame) :0.101
Stream size :2.73 GiB (96%)
Writing library :x264 core 161 r3027 4121277
Encoding settings :cabac=1 / ref=5 / deblock=1:0:0 / analyse=0x3:0x113 / me=hex / subme=8 / psy=1 / psy_rd=1.00:0.00 / mixed_ref=1 / me_range=16 / chroma_me=1 / trellis=2 / 8x8dct=1 / cqm=0 / deadzone=21,11 / fast_pskip=1 / chroma_qp_offset=-2 / threads=2 / lookahead_threads=1 / sliced_threads=0 / nr=0 / decimate=1 / interlaced=0 / bluray_compat=0 / stitchable=1 / constrained_intra=0 / bframes=3 / b_pyramid=2 / b_adapt=2 / b_bias=0 / direct=3 / weightb=1 / open_gop=0 / weightp=2 / keyint=infinite / keyint_min=24 / scenecut=40 / intra_refresh=0 / rc_lookahead=50 / rc=crf / mbtree=1 / crf=20.0 / qcomp=0.60 / qpmin=5 / qpmax=69 / qpstep=4 / vbv_maxrate=5500 / vbv_bufsize=15000 / crf_max=0.0 / nal_hrd=none / filler=0 / ip_ratio=1.40 / aq=1:1.00
Default :Yes
Forced :No
Color range :Limited
Color primaries :BT.709
Transfer characteristics :BT.709
Matrix coefficients :BT.709

Audio
ID :2
Format :AAC LC
Format/Info :Advanced Audio Codec Low Complexity
Codec ID :A_AAC-2
Duration :1 h 17 min
Bit rate :192 kb/s
Channel(s) :2 channels
Channel layout :L R
Sampling rate :48.0 kHz
Frame rate :46.875 FPS (1024 SPF)
Compression mode :Lossy
Stream size :105 MiB (4%)
Default :Yes
Forced :No

Text
ID :3
Format :UTF-8
Codec ID :S_TEXT/UTF8
Codec ID/Info :UTF-8 Plain Text
Duration :1 h 16 min
Bit rate :10 b/s
Count of elements :132
Stream size :5.99 KiB (0%)
Language :Spanish
Default :Yes
Forced :No


Proviene del Det Danske Filminstitut. Le he sincronizado los subtítulos de federico1921. Están en el contenedor.



Imagen
Imagen
Imagen
Imagen
Imagen
Imagen


Imagen 1927-Mockery-Christensen-(WebRip.1080p).mkv [2,831 GB]
Imagen 1927-Mockery-Christensen-(WebRip.1080p).srt [10 kB]



Anterior publicación
Anterior publicación
Última edición por Caolin el 22 Ene 2023 11:48, editado 1 vez en total.

Avatar de Usuario
tonapar1
 
Mensajes: 6747
Registrado: 16 Oct 2012 20:19
Agradecido : 1401 veces
Agradecimiento recibido: 2452 veces

Re: Mockery (Benjamin Christensen, 1927) WebRip 1080p VOSE

Mensaje por tonapar1 » 22 Ene 2023 04:25

Muchas gracias por el ripeo y los subs a caolin y federico1921. Un saludo a ambos.

Danyyyy
 
Mensajes: 2627
Registrado: 27 Ene 2015 18:14
Agradecido : 3173 veces
Agradecimiento recibido: 919 veces

Re: Mockery (Benjamin Christensen, 1927) WebRip 1080p VOSE

Mensaje por Danyyyy » 22 Ene 2023 11:23

Muchas gracias, Caolin. No sé si es que habré pinchado otro archivo de peso y nombre similar, pero no llevaba incluidos subtítulos seleccionables en español (supongo que no será el mismo, porque era un mp4 y no un mkv).

Avatar de Usuario
Caolin
 
Mensajes: 443
Registrado: 02 Jul 2015 12:54
Ubicación: Al poniente, mirando a Gredos.
Agradecido : 2606 veces
Agradecimiento recibido: 615 veces

Re: Mockery (Benjamin Christensen, 1927) WebRip 1080p VOSE

Mensaje por Caolin » 22 Ene 2023 11:52

Danyyyy escribió:
22 Ene 2023 11:23
Muchas gracias, Caolin. No sé si es que habré pinchado otro archivo de peso y nombre similar, pero no llevaba incluidos subtítulos seleccionables en español (supongo que no será el mismo, porque era un mp4 y no un mkv).

Gracias por el aviso. Y perdón por el error, que ya está corregido. Tal como dices puse en la mula el mp4 y no el mkv. He añadido el archivo con los subtítulos.

1927-Mockery-Christensen-(WebRip.1080p).srt

Avatar de Usuario
yojimbo
 
Mensajes: 12685
Registrado: 18 Oct 2012 14:25
Agradecido : 12441 veces
Agradecimiento recibido: 3639 veces

Re: Mockery (Benjamin Christensen, 1927) WebRip 1080p VOSE

Mensaje por yojimbo » 22 Ene 2023 13:31

Muchas gracias, Caolin y federico1921.

Responder

Volver a “Cine de Reestreno”