The Oubliette (Charles Giblyn, 1914) DVDRip VOSE

Ripeos nuevos y/o antiguos, de pelis ya posteadas.

Moderador: mifune

Reglas del Foro
Las puntuaciones están desactivadas en este subforo. Para puntuar debéis ir a cada hilo inicial en sus respectivos foros. Disculpad las molestias.
Responder
Avatar de Usuario
Lobo López
 
Mensajes: 1871
Registrado: 16 Oct 2012 15:07
Ubicación: Cuenca
Agradecido : 4648 veces
Agradecimiento recibido: 6380 veces
Contactar:

Estados Unidos The Oubliette (Charles Giblyn, 1914) DVDRip VOSE

Mensaje por Lobo López » 18 Sep 2022 13:00

Ripeo previo
LON CHANEY (CONTINUACIÓN) (y 3)

THE OUBLIETTE
(La mazmorra)


Imagen

Imagen

FILMAFFINITY

Director: Charles Giblyn
Reparto: Murdock MacQuarrie, Pauline Bush, Lon Chaney, Doc Crane, Chester Withey, Millard K. Wilson, Frank Lanning, Agnes Vernon
Guion: Harry G. Stafford. Historia: George Bronson Howard
Año: 1914
País: USA
Duración: 45 min.
Producción: Bison Motion Pictures
Género: Drama histórico


Argumento: Retazo de la vida del famoso poeta François Villon, en sus andanzas caballerescas y con lances románticos y duelísticos, subrayados por su paso por diversas prisiones. Aquí Chaney es el barón Bertrand de la Pogne, que cae bajo la espada de Villon.



ImagenImagen
ImagenImagen
ImagenImagen
ImagenImagen


Datos Técnicos:
Spoiler:
Format : Matroska
Format version : Version 4 / Version 2
File size : 714 MiB
Duration : 45 min
Overall bit rate : 2 199 kb/s
Encoded date : UTC 2022-09-17 11:36:38
Writing application : mkvmerge v9.1.0 ('Little Earthquakes') 64bit
Writing library : libebml v1.3.3 + libmatroska v1.4.4

Video
ID : 1
Format : AVC
Format/Info : Advanced Video Codec
Format profile : High@L4.1
Format settings, CABAC : Yes
Format settings, ReFrames : 16 frames
Codec ID : V_MPEG4/ISO/AVC
Duration : 45 min
Bit rate : 1 878 kb/s
Width : 536 pixels
Height : 480 pixels
Display aspect ratio : 4:3
Original display aspect rat : 4:3
Frame rate mode : Constant
Frame rate : 14.386 FPS
Color space : YUV
Chroma subsampling : 4:2:0
Bit depth : 8 bits
Scan type : Progressive
Bits/(Pixel*Frame) : 0.507
Stream size : 610 MiB (85%)
Writing library : x264 core 129 r2245+729M 1a52e03
Encoding settings : cabac=1 / ref=16 / deblock=1:-1:-1 / analyse=0x3:0x133 / me=umh / subme=10 / psy=1 / fade_compensate=0.00 / psy_rd=1.00:0.15 / mixed_ref=1 / me_range=24 / chroma_me=0 / trellis=2 / 8x8dct=1 / cqm=0 / deadzone=21,11 / fast_pskip=0 / chroma_qp_offset=-3 / threads=6 / lookahead_threads=1 / sliced_threads=0 / nr=0 / decimate=1 / interlaced=0 / bluray_compat=0 / constrained_intra=0 / fgo=0 / bframes=8 / b_pyramid=2 / b_adapt=2 / b_bias=0 / direct=3 / weightb=1 / open_gop=0 / weightp=2 / keyint=250 / keyint_min=14 / scenecut=40 / intra_refresh=0 / rc_lookahead=60 / rc=crf / mbtree=1 / crf=20.0 / qcomp=0.60 / qpmin=0 / qpmax=69 / qpstep=4 / ip_ratio=1.40 / aq=1:1.00
Language : English
Default : Yes
Forced : No

Audio
ID : 2
Format : AC-3
Format/Info : Audio Coding 3
Mode extension : CM (complete main)
Format settings, Endianness : Big
Codec ID : A_AC3
Duration : 45 min
Bit rate mode : Constant
Bit rate : 320 kb/s
Channel(s) : 2 channels
Channel positions : Front: L R
Sampling rate : 48.0 kHz
Frame rate : 31.250 FPS (1536 spf)
Compression mode : Lossy
Stream size : 104 MiB (15%)
Default : Yes
Forced : No

Text
ID : 3
Format : UTF-8
Codec ID : S_TEXT/UTF8
Codec ID/Info : UTF-8 Plain Text
Duration : 45 min
Bit rate : 16 b/s
Count of elements : 67
Stream size : 5.38 KiB (0%)
Language : Spanish
Default : Yes
Forced : No

Menu
00:00:00.000 : en:Chapter 01
00:09:29.569 : en:Chapter 02
00:19:23.662 : en:Chapter 03
00:27:17.636 : en:Chapter 04
00:36:09.667 : en:Chapter 05
00:44:53.691 : en:Chapter 06


Comentario:

Restauración de esta película sobre las aventuras de Francois Villon, que debía ser un tríptico sobre dicho poeta francés, pero que por circunstancias de la productora sólo se filmó esta primera parte. Algunas escenas de la segunda historia llegaron a filmarse, pero no han sobrevivido. El papel de Chaney es muy corto y, además, muere merecidamente por ser un villano y un maltratador de mujeres.



Subtítulos en español de Eddie Constanti dentro del contenedor del archivo.

eD2K link the.oubliette.1914.dvdrip.x264.ac3.mkv [714.23 Mb] 

:hi:

Avatar de Usuario
Eddie Constanti
 
Mensajes: 6974
Registrado: 05 Ago 2013 21:31
Ubicación: Vallès Oriental
Agradecido : 314 veces
Agradecimiento recibido: 5563 veces

Re: The Oubliette (Charles Giblyn, 1914) DVDRip VOSE

Mensaje por Eddie Constanti » 18 Sep 2022 13:05

Gracias, Lobo.
Recordad que el espacio para los intertítulos de los silentes a veces es muy corto y el texto "pisa" la imagen.
Las cursivas que veis aparecen en el original.

Avatar de Usuario
Prudencio
 
Mensajes: 6127
Registrado: 16 Oct 2012 18:46
Agradecido : 6780 veces
Agradecimiento recibido: 2782 veces

Re: The Oubliette (Charles Giblyn, 1914) DVDRip VOSE

Mensaje por Prudencio » 18 Sep 2022 13:37

Vuelvo a descargarla para comprobar la mejora.
Muchas gracias, Lobo y Eddie. :hi:

Avatar de Usuario
tonapar1
 
Mensajes: 6578
Registrado: 16 Oct 2012 20:19
Agradecido : 1378 veces
Agradecimiento recibido: 2368 veces

Re: The Oubliette (Charles Giblyn, 1914) DVDRip VOSE

Mensaje por tonapar1 » 18 Sep 2022 15:37

Muchas gracias por el ripeo y los subs a lobo lopez y a eddie constanti. Un saludo ambos. Tambien mejoro copia. Muy agradecido.

Avatar de Usuario
Monsieur Lange
 
Mensajes: 6343
Registrado: 13 Sep 2012 19:39
Ubicación: Cruzando las dunas
Agradecido : 3125 veces
Agradecimiento recibido: 2912 veces

Re: The Oubliette (Charles Giblyn, 1914) DVDRip VOSE

Mensaje por Monsieur Lange » 18 Sep 2022 21:09

Muchas gracias Lobo. Voy con este Chaney también
"Esos chicos …/… hablando de los años veinte a veinticinco, revolviendo unos con otros como si todos fuesen unos .../… como si hubieran sido todos de la misma tertulia"
Max Aub: La gallina ciega

Avatar de Usuario
yojimbo
 
Mensajes: 12460
Registrado: 18 Oct 2012 14:25
Agradecido : 12143 veces
Agradecimiento recibido: 3515 veces

Re: The Oubliette (Charles Giblyn, 1914) DVDRip VOSE

Mensaje por yojimbo » 19 Sep 2022 13:45

Muchas gracias, Lobo López y Eddie Constanti.

upthecine
 
Mensajes: 164
Registrado: 16 Oct 2017 20:02
Agradecido : 2194 veces
Agradecimiento recibido: 114 veces
Contactar:

Re: The Oubliette (Charles Giblyn, 1914) DVDRip VOSE

Mensaje por upthecine » 23 Sep 2022 23:53

Guauu, cómo me ha gustado, el protagonista es un personajo total. Por momentos me ha recordado a Albert Pla (la varéis de otra forma). No me extraña que estuviera desaparecida, yo más bien creo que la hicieron desaparecer, porque hoy esa película sería muy marginal, el prota es un revolucionario como la copa de un pino, y en USA no se lleva mucho eso. Gracias!!! :up:

Responder

Volver a “Cine de Reestreno”