The Clock (Vincent Minnelli, 1945) BDRip 720p Dual SE

El reloj

Ripeos nuevos y/o antiguos, de pelis ya posteadas.

Moderador: mifune

Reglas del Foro
Las puntuaciones están desactivadas en este subforo. Para puntuar debéis ir a cada hilo inicial en sus respectivos foros. Disculpad las molestias.
Responder
Avatar de Usuario
DMMD
 
Mensajes: 665
Registrado: 16 Oct 2012 15:35
Agradecido : 711 veces
Agradecimiento recibido: 3514 veces

Estados Unidos The Clock (Vincent Minnelli, 1945) BDRip 720p Dual SE

Mensaje por DMMD » 05 Ago 2022 19:00

The clock

Vincent Minnelli, 1945




Imagen

Imagen

El reloj




Título original The Clock
Año 1945
Duración 90 min.
País Imagen
Dirección Vincente Minnelli, Fred Zinnemann(uncredited)
Guion Robert Nathan, Joseph Schrank. Historia: Paul Gallico, Pauline Gallico
Música George Bassman
Fotografía George J. Folsey
Reparto
Judy Garland, Robert Walker, James Gleason, Keenan Wynn, Marshall Thompson, Lucile Gleason, Ruth Brady, Eddie Acuff, Franklyn Farnum, Jack Mower, Ray Teal, Lee Phelps, Ann Codee, Terry Moore, Nan Leslie, Sam Harris, Kenner G. Kemp, Eddie Hall, Philip Morris, Al Bridge, Milton Kibbee, Frank McLure, Reed Howes

Productora Metro-Goldwyn-Mayer (MGM)
Género Romance. Drama | Drama romántico
Sinopsis
Una chica conoce a un soldado en la Estación de Pennsylvania en Nueva York. El joven tiene un permiso de 48 horas, tiempo suficiente para enamorar a la muchacha y casarse con ella. (FILMAFFINITY)

Premios
1945: National Board of Review: Mejores diez películas


Imagen

Vídeo:

- Encode a partir de la edición del Bluray Warner Archive Collection


Imagen Imagen Imagen Imagen Imagen Imagen Imagen Imagen Imagen Imagen Imagen Imagen



Código: Seleccionar todo

General
Unique ID                                : 206484311802397834582757751775847551551 (0x9B576E91F541CD7FC9C83EF4C2E8923F)
Complete name                            : D:\Incoming\1945-The.Clock.BRx264.720p.AAC.AC3.(DMMD).mkv
Format                                   : Matroska
Format version                           : Version 4
File size                                : 4.58 GiB
Duration                                 : 1 h 30 min
Overall bit rate                         : 7 262 kb/s
Movie name                               : 1945-The.Clock.BRx264.720p.AAC.AC3.(DMMD)
Encoded date                             : UTC 2022-07-29 15:04:50
Writing application                      : mkvmerge v69.0.0 ('Day And Age') 64-bit
Writing library                          : libebml v1.4.2 + libmatroska v1.6.4
Attachments                              : 1 / 2

Video
ID                                       : 1
Format                                   : AVC
Format/Info                              : Advanced Video Codec
Format profile                           : High@L4.1
Format settings                          : CABAC / 11 Ref Frames
Format settings, CABAC                   : Yes
Format settings, Reference frames        : 11 frames
Codec ID                                 : V_MPEG4/ISO/AVC
Duration                                 : 1 h 30 min
Bit rate                                 : 6 910 kb/s
Width                                    : 986 pixels
Height                                   : 720 pixels
Display aspect ratio                     : 4:3
Frame rate mode                          : Constant
Frame rate                               : 23.976 (24000/1001) FPS
Color space                              : YUV
Chroma subsampling                       : 4:2:0
Bit depth                                : 8 bits
Scan type                                : Progressive
Bits/(Pixel*Frame)                       : 0.406
Stream size                              : 4.36 GiB (95%)
Title                                    : Warner Archive Collection
Writing library                          : x264 core 152 r2851kMod ba24899
Encoding settings                        : cabac=1 / ref=11 / deblock=1:-3:-3 / analyse=0x3:0x133 / me=umh / subme=11 / psy=1 / fade_compensate=0.00 / psy_rd=1.15:0.02 / mixed_ref=1 / me_range=24 / chroma_me=1 / trellis=2 / 8x8dct=1 / cqm=0 / deadzone=21,11 / fast_pskip=0 / chroma_qp_offset=-3 / threads=6 / lookahead_threads=1 / sliced_threads=0 / nr=0 / decimate=0 / interlaced=0 / bluray_compat=0 / constrained_intra=0 / bframes=8 / b_pyramid=2 / b_adapt=2 / b_bias=0 / direct=3 / weightb=1 / open_gop=0 / weightp=2 / keyint=250 / keyint_min=23 / scenecut=40 / intra_refresh=0 / rc=crf / mbtree=0 / crf=17.8000 / qcomp=0.75 / qpmin=0 / qpmax=69 / qpstep=4 / ip_ratio=1.30 / pb_ratio=1.20 / aq=3:0.50
Language                                 : English
Default                                  : Yes
Forced                                   : No

Audio #1
ID                                       : 2
Format                                   : AAC LC
Format/Info                              : Advanced Audio Codec Low Complexity
Codec ID                                 : A_AAC-2
Duration                                 : 1 h 30 min
Bit rate                                 : 136 kb/s
Channel(s)                               : 2 channels
Channel layout                           : L R
Sampling rate                            : 48.0 kHz
Frame rate                               : 46.875 FPS (1024 SPF)
Compression mode                         : Lossy
Delay relative to video                  : 9 ms
Stream size                              : 87.6 MiB (2%)
Language                                 : English
Default                                  : Yes
Forced                                   : No

Audio #2
ID                                       : 3
Format                                   : AC-3
Format/Info                              : Audio Coding 3
Commercial name                          : Dolby Digital
Codec ID                                 : A_AC3
Duration                                 : 1 h 30 min
Bit rate mode                            : Constant
Bit rate                                 : 192 kb/s
Channel(s)                               : 2 channels
Channel layout                           : L R
Sampling rate                            : 48.0 kHz
Frame rate                               : 31.250 FPS (1536 SPF)
Compression mode                         : Lossy
Stream size                              : 124 MiB (3%)
Language                                 : Spanish
Service kind                             : Complete Main
Default                                  : Yes
Forced                                   : No

Text #1
ID                                       : 4
Format                                   : UTF-8
Codec ID                                 : S_TEXT/UTF8
Codec ID/Info                            : UTF-8 Plain Text
Duration                                 : 1 h 28 min
Bit rate                                 : 62 b/s
Count of elements                        : 1101
Stream size                              : 40.6 KiB (0%)
Language                                 : Spanish
Default                                  : No
Forced                                   : No

Text #2
ID                                       : 5
Format                                   : UTF-8
Codec ID                                 : S_TEXT/UTF8
Codec ID/Info                            : UTF-8 Plain Text
Duration                                 : 1 h 27 min
Bit rate                                 : 68 b/s
Count of elements                        : 1436
Stream size                              : 43.7 KiB (0%)
Language                                 : English
Default                                  : No
Forced                                   : No

Text #3
ID                                       : 6
Format                                   : UTF-8
Codec ID                                 : S_TEXT/UTF8
Codec ID/Info                            : UTF-8 Plain Text
Duration                                 : 1 h 29 min
Bit rate                                 : 71 b/s
Count of elements                        : 1603
Stream size                              : 46.8 KiB (0%)
Title                                    : SDH
Language                                 : English
Default                                  : No
Forced                                   : No

Text #4
ID                                       : 7
Format                                   : PGS
Muxing mode                              : zlib
Codec ID                                 : S_HDMV/PGS
Codec ID/Info                            : Picture based subtitle format used on BDs/HD-DVDs
Duration                                 : 1 h 29 min
Bit rate                                 : 38.7 kb/s
Count of elements                        : 3206
Stream size                              : 24.9 MiB (1%)
Title                                    : Bluray
Language                                 : English
Default                                  : No
Forced                                   : No

Menu
00:00:00.000                             : en:00:00:00.000
00:01:15.075                             : en:00:01:15.075
00:04:53.293                             : en:00:04:53.293
00:07:40.502                             : en:00:07:40.502
00:10:27.627                             : en:00:10:27.627
00:13:41.821                             : en:00:13:41.821
00:17:34.303                             : en:00:17:34.303
00:20:14.463                             : en:00:20:14.463
00:25:00.499                             : en:00:25:00.499
00:27:58.302                             : en:00:27:58.302
00:32:26.862                             : en:00:32:26.862
00:34:50.422                             : en:00:34:50.422
00:38:10.288                             : en:00:38:10.288
00:40:32.513                             : en:00:40:32.513
00:43:21.808                             : en:00:43:21.808
00:46:53.102                             : en:00:46:53.102
00:50:41.789                             : en:00:50:41.789
00:52:11.837                             : en:00:52:11.837
00:56:12.077                             : en:00:56:12.077
00:59:42.579                             : en:00:59:42.579
01:01:16.798                             : en:01:01:16.798
01:05:51.739                             : en:01:05:51.739
01:07:15.531                             : en:01:07:15.531
01:10:34.689                             : en:01:10:34.689
01:12:56.080                             : en:01:12:56.080
01:15:50.546                             : en:01:15:50.546
01:19:27.972                             : en:01:19:27.972
01:21:35.432                             : en:01:21:35.432
01:24:57.884                             : en:01:24:57.884
01:28:12.537                             : en:01:28:12.537
01:29:31.908                             : en:01:29:31.908
01:30:07.235                             : en:01:30:07.235


Imagen



BDRip 720p Vs Dvd Ntsc (Warner Bros)

Imagen
Imagen



Imagen

Judy Garland y Robert Walker con Vincente Minnelli durante el rodaje



Audio y subtitulos:

- Para la V.O. audio AAC pasado del Blu-ray. (English DTS-HD MA 2.0), subs extraídos del Bluray.

- Audio y sub del dvd para el doblaje.


Imagen


CAPTURAS

Imagen
Imagen
Imagen
Imagen
Imagen
Imagen
Imagen
Imagen
Imagen

Imagen

Enlaces de descarga

Imagen

eD2K link 1945-The.Clock.BRx264.720p.AAC.AC3.(DMMD).mkv [4.58 Gb] 


Imagen

RickBrice
 
Mensajes: 422
Registrado: 16 Nov 2012 21:45
Agradecido : 281 veces
Agradecimiento recibido: 98 veces

Re: The clock (Vincent Minnelli, 1945) BDRip 720p Dual SE

Mensaje por RickBrice » 05 Ago 2022 21:30

Gracias DMMD, triste el final del actor Robert Walker que murió a los 32 años por una mezcla de droga y alcohol, fue el 1º marido de Jennifer Jones y había alcanzado ya el status de estrella, de su carrera quizá el mejor papel fue el de psicópata en " Extraños en un tren ". Un saludo.

Avatar de Usuario
Guiller3
 
Mensajes: 1183
Registrado: 12 May 2013 03:58
Ubicación: Si eres mujer, búscame en tu corazón. Si eres hombre, me hallarás en tu cabeza.
Agradecido : 562 veces
Agradecimiento recibido: 782 veces

Re: The clock (Vincent Minnelli, 1945) BDRip 720p Dual SE

Mensaje por Guiller3 » 06 Ago 2022 01:04

Una preciosa película, para mi gusto una de las más bellas historias románticas que nos haya dado el arte cinematográfico. Garland y Walker inolvidables.

Magnífico aporte, DMMD.

ciberyago
 
Mensajes: 2784
Registrado: 20 Oct 2012 07:26
Agradecido : 1 vez
Agradecimiento recibido: 545 veces

Re: The clock (Vincent Minnelli, 1945) BDRip 720p Dual SE

Mensaje por ciberyago » 06 Ago 2022 04:42

Muchas gracias

Avatar de Usuario
tonapar1
 
Mensajes: 6500
Registrado: 16 Oct 2012 20:19
Agradecido : 1360 veces
Agradecimiento recibido: 2333 veces

Re: The clock (Vincent Minnelli, 1945) BDRip 720p Dual SE

Mensaje por tonapar1 » 06 Ago 2022 07:53

Muchas gracias por el ripeo a dmmd. Un saludo. Mejoro copia

Avatar de Usuario
yojimbo
 
Mensajes: 12361
Registrado: 18 Oct 2012 14:25
Agradecido : 12017 veces
Agradecimiento recibido: 3483 veces

Re: The clock (Vincent Minnelli, 1945) BDRip 720p Dual SE

Mensaje por yojimbo » 06 Ago 2022 17:25

Muchas gracias, DMMD.

Avatar de Usuario
cinefilototal
 
Mensajes: 806
Registrado: 16 Oct 2012 19:04
Agradecido : 736 veces
Agradecimiento recibido: 164 veces

Re: The clock (Vincent Minnelli, 1945) BDRip 720p Dual SE

Mensaje por cinefilototal » 06 Ago 2022 18:26

¡Mil gracias!.

Avatar de Usuario
Monsieur Lange
 
Mensajes: 6279
Registrado: 13 Sep 2012 19:39
Ubicación: Cruzando las dunas
Agradecido : 3045 veces
Agradecimiento recibido: 2880 veces

Re: The Clock (Vincent Minnelli, 1945) BDRip 720p Dual SE

Mensaje por Monsieur Lange » 07 Ago 2022 18:15

Mil gracias DMMD. Pincho sin dudar.
"Esos chicos …/… hablando de los años veinte a veinticinco, revolviendo unos con otros como si todos fuesen unos .../… como si hubieran sido todos de la misma tertulia"
Max Aub: La gallina ciega

Avatar de Usuario
AFR
 
Mensajes: 6
Registrado: 22 Ene 2022 18:22
Agradecido : 17 veces
Agradecimiento recibido: 2 veces

Re: The Clock (Vincent Minnelli, 1945) BDRip 720p Dual SE

Mensaje por AFR » 07 Ago 2022 23:00

Que gran aporte. Muchísimas gracias DMMD.
Y que bella que era Judy.

Responder

Volver a “Cine de Reestreno”