Il Gatto (Luigi Comencini, 1978) WEBRip+Audio Esp SE-SI

La Casa De Los Desmadres.

Ripeos nuevos y/o antiguos, de pelis ya posteadas.

Moderador: mifune

Reglas del Foro
Las puntuaciones están desactivadas en este subforo. Para puntuar debéis ir a cada hilo inicial en sus respectivos foros. Disculpad las molestias.
Responder
Avatar de Usuario
locotus
 
Mensajes: 982
Registrado: 16 Oct 2012 18:18
Agradecido : 51 veces
Agradecimiento recibido: 5876 veces

Italia Il Gatto (Luigi Comencini, 1978) WEBRip+Audio Esp SE-SI

Mensaje por locotus » 06 Abr 2021 16:31

vozidar escribió:
04 Abr 2014 20:16

Director
Luigi Comencini

Guión
Augusto Caminito, Fulvio Marcolin, Rodolfo Sonego

Música
Ennio Morricone

Fotografía
Ennio Guarnieri

Reparto
Ugo Tognazzi ... Amedeo Pecoraro
Mariangela Melato ... Ofelia Pecoraro
Michel Galabru ... Francisci
Dalila Di Lazzaro ... Wanda Yukovich
Philippe Leroy ... Don Pezzolla
Jean Martin ... Legrand
Aldo Reggiani ... Salvatore

Productora
Coproducción Italia-Francia; Rafran Cinematografica
Género
Comedia | Comedia negra
Sinopsis
Amedeo y Ofelia Pecoraro son dos hermanos de mediana edad que tienen en propiedad un edificio de aspecto decadente pero con encanto. Hartos del edificio, deciden venderlo, pero primero deben desalojar a todos los inquilinos, cosa que, por descontado, ellos no quieren hacer y de hecho, cuando se ha corrido la voz de sus planes, ya ni les abren la puerta. Pero con la muerte de su gato, una mascota muy querida en el edificio, encuentran la excusa para ser recibidos y llevar a cabo sus planes, para lo cual tendrán que engañar y seducir a diversos de sus inquilinos.

Críticas
A partir de un argumento de Rodolfo Sonego –colaborador habitual de Sordi- se embarca Luigi Comencini en esta sátira sobre las apariencias burguesas y las miserias de cualquier clase social en forma de relato policíaco. Mariangela Melato y Ugo Tognazzi, pletóricos, se lanzan, cual Holmes y Watson de barrio, a la búsqueda del asesino de un gato cuyo cadáver tieso pasean por todas partes. Claro que su idea no es hacer justicia, sino conseguir desalojar a los inquilinos de la casa de renta antigua que poseen en el centro de Roma. El extenso elenco acaso sea la representación de demasiados males sociales en torno a un mismo patio de vecindad, pero nadie le reprochó esto a Hitch cuando hizo Rear Window (La ventana indiscreta, Alfred Hitchcock, 1954). Eso sí, para nuestra felicidad, en la película de Comencini no hay ni un solo personaje positivo. Y es que este esperpento -en sentido estrictamente valleinclanesco de espejo deformante de los héroes clásicos- sólo se comprende después del éxito de Brutti, sporchi e cattivi (Brutos, sucios y malos, Ettore Scola, 1976). (Carnicerito)
------------------------------------------------------------------------------------------------------------------
Un viejo edificio, unos propietarios mezquinos, un gato ladrón y turbios intereses inmobiliarios. Con estas bases, Comencini construyó una comedia tirando a esperpéntica que, sobre el papel, tenía posibilidades inmejorables. Su resultado es apreciable, pero le falta un poco más de gas para llegar a ser una obra importante. (fotogramas.es)
-----------------------------------------------------------------------------------------------
Al igual que en "Lo scopone scientifico", historia y guión (con Augusto Caminito) de Rodolfo Sonego: el tono general es más oscuro y más cruel, pero se excede en la tensión hacia la metáfora, a expensas de la verosimilitud. Es una de las películas de los años 70 que marcan, con el estandarte del pesimismo, el fin de la comedia italiana, hegemónica en la década anterior. Dúo infalible Tognazzi-Melato. Música de Ennio Morricone. Producida por Sergio Leone. (mymovies.it)
-----------------------------------------------------------------------------------------------
Capturas:

ImagenImagenImagenImagen

ImagenImagenImagenImagen
Datos:

Código: Seleccionar todo

General
Unique ID                   : 110806704806869329743561026200771907520 (0x535C98575608B0347B6E6203528E4FC0)
Complete name               : Il Gatto (1978) WEBRip.VOSE-VXT.mkv
Format                      : Matroska
Format version              : Version 4
File size                   : 1.71 GiB
Duration                    : 1 h 49 min
Overall bit rate            : 2 235 kb/s
Encoded date                : UTC 2021-04-06 03:41:35
Writing application         : mkvmerge v56.0.0 ('Strasbourg / St. Denis') 64-bit
Writing library             : libebml v1.4.2 + libmatroska v1.6.4

Video
ID                          : 1
Format                      : HEVC
Format/Info                 : High Efficiency Video Coding
Format profile              : Main 10@L4@Main
Codec ID                    : V_MPEGH/ISO/HEVC
Duration                    : 1 h 49 min
Bit rate                    : 2 001 kb/s
Width                       : 1 800 pixels
Height                      : 1 080 pixels
Display aspect ratio        : 5:3
Frame rate mode             : Constant
Frame rate                  : 24.000 FPS
Color space                 : YUV
Chroma subsampling          : 4:2:0
Bit depth                   : 10 bits
Bits/(Pixel*Frame)          : 0.043
Stream size                 : 1.53 GiB (90%)
Writing library             : x265 3.3+4-rarbg-30eb4de83092:[Linux][GCC 8.3.1][64 bit] 10bit
Encoding settings           : cpuid=1111039 / frame-threads=4 / wpp / no-pmode / no-pme / no-psnr / no-ssim / log-level=2 / input-csp=1 / input-res=1800x1080 / interlace=0 / total-frames=0 / level-idc=0 / high-tier=1 / uhd-bd=0 / ref=4 / no-allow-non-conformance / no-repeat-headers / annexb / no-aud / no-hrd / info / hash=0 / no-temporal-layers / open-gop / min-keyint=24 / keyint=250 / gop-lookahead=0 / bframes=4 / b-adapt=2 / b-pyramid / bframe-bias=0 / rc-lookahead=25 / lookahead-slices=4 / scenecut=40 / hist-scenecut=0 / radl=0 / no-splice / no-intra-refresh / ctu=64 / min-cu-size=8 / rect / no-amp / max-tu-size=32 / tu-inter-depth=1 / tu-intra-depth=1 / limit-tu=0 / rdoq-level=2 / dynamic-rd=0.00 / no-ssim-rd / signhide / no-tskip / nr-intra=0 / nr-inter=0 / no-constrained-intra / strong-intra-smoothing / max-merge=3 / limit-refs=3 / limit-modes / me=3 / subme=3 / merange=57 / temporal-mvp / no-frame-dup / no-hme / weightp / no-weightb / no-analyze-src-pics / deblock=0:0 / no-sao / no-sao-non-deblock / rd=4 / selective-sao=0 / no-early-skip / rskip / no-fast-intra / no-tskip-fast / no-cu-lossless / no-b-intra / no-splitrd-skip / rdpenalty=0 / psy-rd=2.00 / psy-rdoq=1.00 / no-rd-refine / no-lossless / cbqpoffs=0 / crqpoffs=0 / rc=abr / bitrate=2000 / qcomp=0.60 / qpstep=4 / stats-write=0 / stats-read=2 / cplxblur=20.0 / qblur=0.5 / ipratio=1.40 / pbratio=1.30 / aq-mode=3 / aq-strength=1.00 / cutree / zone-count=0 / no-strict-cbr / qg-size=32 / no-rc-grain / qpmax=69 / qpmin=0 / no-const-vbv / sar=1 / overscan=0 / videoformat=5 / range=0 / colorprim=2 / transfer=2 / colormatrix=2 / chromaloc=0 / display-window=0 / cll=0,0 / min-luma=0 / max-luma=1023 / log2-max-poc-lsb=8 / vui-timing-info / vui-hrd-info / slices=1 / no-opt-qp-pps / no-opt-ref-list-length-pps / no-multi-pass-opt-rps / scenecut-bias=0.05 / hist-threshold=0.01 / no-opt-cu-delta-qp / no-aq-motion / no-hdr10 / no-hdr10-opt / no-dhdr10-opt / no-idr-recovery-sei / analysis-reuse-level=0 / analysis-save-reuse-level=0 / analysis-load-reuse-level=0 / scale-factor=0 / refine-intra=0 / refine-inter=0 / refine-mv=1 / refine-ctu-distortion=0 / no-limit-sao / ctu-info=0 / no-lowpass-dct / refine-analysis-type=0 / copy-pic=1 / max-ausize-factor=1.0 / no-dynamic-refine / no-single-sei / no-hevc-aq / no-svt / no-field / qp-adaptation-range=1.00 / no-scenecut-aware-qpconformance-window-offsets / right=0 / bottom=0
Default                     : Yes
Forced                      : No

Audio
ID                          : 2
Format                      : AAC LC
Format/Info                 : Advanced Audio Codec Low Complexity
Codec ID                    : A_AAC-2
Duration                    : 1 h 49 min
Bit rate                    : 224 kb/s
Channel(s)                  : 2 channels
Channel layout              : L R
Sampling rate               : 48.0 kHz
Frame rate                  : 46.875 FPS (1024 SPF)
Compression mode            : Lossy
Delay relative to video     : -43 ms
Stream size                 : 176 MiB (10%)
Language                    : English
Default                     : Yes
Forced                      : No

Text #1
ID                          : 3
Format                      : VobSub
Muxing mode                 : zlib
Codec ID                    : S_VOBSUB
Codec ID/Info               : Picture based subtitle format used on DVDs
Duration                    : 1 h 43 min
Bit rate                    : 3 312 b/s
Count of elements           : 1334
Stream size                 : 2.45 MiB (0%)
Language                    : English
Default                     : No
Forced                      : No

Text #2
ID                          : 4
Format                      : VobSub
Muxing mode                 : zlib
Codec ID                    : S_VOBSUB
Codec ID/Info               : Picture based subtitle format used on DVDs
Duration                    : 1 h 43 min
Bit rate                    : 14.0 kb/s
Count of elements           : 1054
Stream size                 : 10.4 MiB (1%)
Language                    : Spanish
Default                     : Yes
Forced                      : No
Subtítulos en español, por carnicerito y vozidar, ajustados a este ripeo.

Ripeo del grupo VXT, audio, video untouched, subs ingleses bajaron con el archivo.
Audio Español Sincronizado:
eD2K link Il Gatto (1977) Audio Español Sincronizado (BRRip).m4a [64.68 Mb] 
Proviene de un avi descargado por eMule.

eD2K link Il Gatto (1978) WEBRip.VOSE-VXT.mkv [1.71 Gb] 
Última edición por locotus el 08 Abr 2021 03:35, editado 1 vez en total.
“Si no lees los periódicos estás desinformado”.
Y si los lees estás mal informado”.
Denzel Washington.

ciberyago
 
Mensajes: 2600
Registrado: 20 Oct 2012 07:26
Agradecido : 1 vez
Agradecimiento recibido: 454 veces

Re: Il Gatto (Luigi Comencini, 1978) WEBRip VOSE-SI

Mensaje por ciberyago » 07 Abr 2021 04:27

Muchas gracias

Avatar de Usuario
locotus
 
Mensajes: 982
Registrado: 16 Oct 2012 18:18
Agradecido : 51 veces
Agradecimiento recibido: 5876 veces

Re: Il Gatto (Luigi Comencini, 1978) WEBRip+Audio Esp SE-SI

Mensaje por locotus » 08 Abr 2021 03:36

Incluído Audio Español sincronizado en el post.
Audio
ID : 1
Format : AAC LC
Format/Info : Advanced Audio Codec Low Complexity
Codec ID : mp4a-40-2
Duration : 1 h 49 min
Bit rate mode : Variable
Bit rate : 81.0 kb/s
Maximum bit rate : 87.1 kb/s
Channel(s) : 2 channels
Channel layout : L R
Sampling rate : 44.1 kHz
Frame rate : 43.066 FPS (1024 SPF)
Compression mode : Lossy
Stream size : 63.6 MiB (98%)
Writing library : Nero AAC codec 1.5.4.0
Encoded date : UTC 2021-04-08 01:26:27
Tagged date : UTC 2021-04-08 01:28:23
“Si no lees los periódicos estás desinformado”.
Y si los lees estás mal informado”.
Denzel Washington.

Avatar de Usuario
Monsieur Lange
 
Mensajes: 5451
Registrado: 13 Sep 2012 19:39
Ubicación: Cruzando las dunas
Agradecido : 2101 veces
Agradecimiento recibido: 2193 veces

Re: Il Gatto (Luigi Comencini, 1978) WEBRip+Audio Esp SE-SI

Mensaje por Monsieur Lange » 08 Abr 2021 10:12

Gracias locotus y carnicerito. Renuevo copia.
"...Colmar la ignorancia es postergar la escritura hasta mañana, o más bien volverla imposible..."
Gilles Deleuze: Diferencia y repetición

lord007
 
Mensajes: 307
Registrado: 14 Jul 2013 10:49
Agradecido : 834 veces
Agradecimiento recibido: 128 veces

Re: Il Gatto (Luigi Comencini, 1978) WEBRip+Audio Esp SE-SI

Mensaje por lord007 » 11 Abr 2021 15:41

Muchísimas gracias locotus :)

Parece que no hay fuentes del audio desgraciadamente...:(

Avatar de Usuario
locotus
 
Mensajes: 982
Registrado: 16 Oct 2012 18:18
Agradecido : 51 veces
Agradecimiento recibido: 5876 veces

Re: Il Gatto (Luigi Comencini, 1978) WEBRip+Audio Esp SE-SI

Mensaje por locotus » 11 Abr 2021 15:58

lord007 escribió:
11 Abr 2021 15:41
Muchísimas gracias locotus :)

Parece que no hay fuentes del audio desgraciadamente...:(
Todavía lo tengo en el incoming, ahora le aumento la prioridad a ver que pasa.
“Si no lees los periódicos estás desinformado”.
Y si los lees estás mal informado”.
Denzel Washington.

Avatar de Usuario
tonapar1
 
Mensajes: 5557
Registrado: 16 Oct 2012 20:19
Agradecido : 1117 veces
Agradecimiento recibido: 1915 veces

Re: Il Gatto (Luigi Comencini, 1978) WEBRip+Audio Esp SE-SI

Mensaje por tonapar1 » 14 Abr 2021 19:13

Muchas grcias por el ripeo y los subs a vozidar, carnicerito y locotus. Un saludo a todos ellos.
Bajado el audio, lo dejare un par de semanas y lo pongo en lanzamiento

Responder

Volver a “Cine de Reestreno”