Botany Bay (John Farrow, 1952) TVRip Dual

La nave de los condenados (Doblaje Cines 1955)

Ripeos nuevos y/o antiguos, de pelis ya posteadas.

Moderador: mifune

Reglas del Foro
Las puntuaciones están desactivadas en este subforo. Para puntuar debéis ir a cada hilo inicial en sus respectivos foros. Disculpad las molestias.
Responder
Avatar de Usuario
DCINE
 
Mensajes: 1609
Registrado: 30 Jul 2016, 20:09
Agradecido : 876 veces
Agradecimiento recibido: 3168 veces

Estados Unidos Botany Bay (John Farrow, 1952) TVRip Dual

Mensaje por DCINE » 24 Mar 2020, 10:56

Hilo anterior
La nave de los condenados
(Botany Bay)

1952

Imagen



DIRECTOR: John Farrow
PRODUCTORA: Paramount Pictures
GUIÓN: Jonathan Latimer (Novela: James Norman Hall)
MÚSICA: Franz Waxman
FOTOGRAFÍA: John F. Seitz


ImagenImagenImagen

ImagenImagen



ARGUMENTO A finales del siglo XVIII, un barco cargado de presos zarpa de Londres con destino a Nueva Gales del Sur, donde el Imperio Británico tiene previsto establecer una colonia penal. Entre los reos se encuentra Hugh Tallant (Alan Ladd), un estudiante de medicina injustamente condenado, que acabará enfrentándose con el cruel capitán Gilbert (James Mason), al tiempo que se enamora de la bella Sally Monroe (Patricia Medina). (FILMAFFINITY) IMDB: https://www.imdb.com/title/tt0045574/

ImagenImagenImagen
ImagenImagenImagen
ImagenImagenImagen
ImagenImagen
Imagen



Reparto: Alan Ladd, James Mason, Patricia Medina, Cedric Hardwicke, Jonathan Harris, Murray Matheson, Malcom Lee Beggs

ImagenImagenImagen


Datos técnicos

Ripeo bajado de KG, mejora bastante a la copia que circula desde hace años. El doblaje (el del estreno en cines de 1955), es de una copia facilitada por aguadulce por petición mía, le faltaba un fragmento (por un fallo en la señal de emisión) parcheado con el audio que circula y hice otro parche para el texto del principio. Podía haber adaptado el audio que circula, pero se sincronizó sobre una copia mal codificada a la que le faltan varios frames.

Código: Seleccionar todo

General:
General
Complete name                    : C:\Users\BRAIS\Downloads\eMule\Incoming\1952 La nave de los condenados (Botany Bay) (John Farrow, 1952) TVRip Dual (Spa (Doblaje Cines 1955)-Eng).avi
Format                           : AVI
Format/Info                      : Audio Video Interleave
File size                        : 829 MiB
Duration                         : 1h 34mn
Overall bit rate mode            : Variable
Overall bit rate                 : 1 233 Kbps
Writing application              : VirtualDubMod 1.5.10.2 (build 2540/release)
Writing library                  : VirtualDubMod build 2540/release

Video
ID                               : 0
Format                           : MPEG-4 Visual
Format profile                   : Advanced Simple@L5
Format settings, BVOP            : 1
Format settings, QPel            : No
Format settings, GMC             : No warppoints
Format settings, Matrix          : Default (MPEG)
Codec ID                         : XVID
Codec ID/Hint                    : XviD
Duration                         : 1h 34mn
Bit rate                         : 949 Kbps
Width                            : 608 pixels
Height                           : 448 pixels
Display aspect ratio             : 4:3
Frame rate                       : 23.976 fps
Color space                      : YUV
Chroma subsampling               : 4:2:0
Bit depth                        : 8 bits
Scan type                        : Progressive
Compression mode                 : Lossy
Bits/(Pixel*Frame)               : 0.145
Stream size                      : 638 MiB (77%)
Writing library                  : XviD 1.2.0.dev47 (UTC 2006-11-01)

Audio #1
ID                               : 1
Format                           : AC-3
Format/Info                      : Audio Coding 3
Mode extension                   : CM (complete main)
Codec ID                         : 2000
Duration                         : 1h 34mn
Bit rate mode                    : Constant
Bit rate                         : 192 Kbps
Channel(s)                       : 1 channel
Channel positions                : Front: C
Sampling rate                    : 48.0 KHz
Bit depth                        : 16 bits
Compression mode                 : Lossy
Stream size                      : 129 MiB (16%)
Alignment                        : Split accross interleaves
Interleave, duration             : 42 ms (1.00 video frame)
Interleave, preload duration     : 500 ms

Audio #2
ID                               : 2
Format                           : MPEG Audio
Format version                   : Version 1
Format profile                   : Layer 3
Codec ID                         : 55
Codec ID/Hint                    : MP3
Duration                         : 1h 33mn
Bit rate mode                    : Variable
Bit rate                         : 80.0 Kbps
Channel(s)                       : 1 channel
Sampling rate                    : 48.0 KHz
Compression mode                 : Lossy
Stream size                      : 52.4 MiB (6%)
Alignment                        : Split accross interleaves
Interleave, duration             : 42 ms (1.00 video frame)
Interleave, preload duration     : 500 ms
Writing library                  : LAME3.92 
Encoding settings                : -m m -V 0 -q 2 -lowpass 16.5 --abr 80


Capturas:

Imagen Imagen
Imagen Imagen
Imagen Imagen
Imagen Imagen
Imagen Imagen



Enlace:

eD2K link 1952 La nave de los condenados (Botany Bay) (John Farrow, 1952) TVRip Dual (Spa (...s 1955)-Eng).avi [829.35 Mb] 

Avatar de Usuario
Wardbond
 
Mensajes: 156
Registrado: 17 Oct 2012, 01:11
Agradecido : 39 veces
Agradecimiento recibido: 57 veces
Contactar:

Re: Botany Bay (John Farrow, 1952) TVRip Dual

Mensaje por Wardbond » 24 Mar 2020, 21:59

Muchísimas gracias!!!! :aplauso: :aplauso:
FORAJIDOS DE LEYENDA
http://fdlwest2.forogratis.es

Avatar de Usuario
Prudencio
 
Mensajes: 4520
Registrado: 16 Oct 2012, 18:46
Agradecido : 5057 veces
Agradecimiento recibido: 1810 veces

Re: Botany Bay (John Farrow, 1952) TVRip Dual

Mensaje por Prudencio » 24 Mar 2020, 22:11

Muchas gracias, DCINE. :hi:

jorobado7
 
Mensajes: 1991
Registrado: 16 Oct 2012, 15:08
Agradecido : 563 veces
Agradecimiento recibido: 2625 veces

Re: Botany Bay (John Farrow, 1952) TVRip Dual

Mensaje por jorobado7 » 24 Mar 2020, 22:22

una de aventuras, de las de toda la vida. Muchas gracias.

Avatar de Usuario
tonapar1
 
Mensajes: 4419
Registrado: 16 Oct 2012, 20:19
Agradecido : 1102 veces
Agradecimiento recibido: 1300 veces

Re: Botany Bay (John Farrow, 1952) TVRip Dual

Mensaje por tonapar1 » 25 Mar 2020, 04:30

Muchas gracias por el ripeo a dcine y aguadulce. Un saludo a ambos.

Avatar de Usuario
mifune
 
Mensajes: 6668
Registrado: 02 Oct 2012, 20:48
Ubicación: Welcome to the Jungle
Agradecido : 9898 veces
Agradecimiento recibido: 9241 veces

Re: Botany Bay (John Farrow, 1952) TVRip Dual

Mensaje por mifune » 25 Mar 2020, 11:56

Curioso lo de esta película, no tiene buena copia, está doblada al español, al francés, al italiano, al alemán, al turco, pero no hay subs por ningún lado. Lástima porque es estupenda.

Gracias por el trabajo, DCINE
"Una vez superada la barrera de los subtítulos, descubrirán películas maravillosas” Bong Joon-Ho

Avatar de Usuario
sete
 
Mensajes: 4418
Registrado: 22 Dic 2012, 16:10
Agradecido : 208 veces
Agradecimiento recibido: 1324 veces

Re: Botany Bay (John Farrow, 1952) TVRip Dual

Mensaje por sete » 26 Mar 2020, 20:56

Muchas gracias, DCINE.
:hi:
Este mundo está traicionando a la vida.
José Luis Sampedro

Responder

Volver a “Cine de Reestreno”