Fortune Is a Woman (Sidney Gilliat, 1957) BDRip 1080p VO SE

She Played With Fire

Ripeos nuevos y/o antiguos, de pelis ya posteadas.

Moderador: mifune

Reglas del Foro
Las puntuaciones están desactivadas en este subforo. Para puntuar debéis ir a cada hilo inicial en sus respectivos foros. Disculpad las molestias.
Responder
Avatar de Usuario
roisiano
 
Mensajes: 483
Registrado: 16 Oct 2012, 16:36
Ubicación: Al final del río.
Agradecido : 4 veces
Agradecimiento recibido: 2166 veces

Reino Unido Fortune Is a Woman (Sidney Gilliat, 1957) BDRip 1080p VO SE

Mensaje por roisiano » 06 Oct 2019, 11:47

Previamente en esta web

Fortune Is a Woman (She Played With Fire) (Sidney Gilliat, 1957)

Imagen
Imagen
Imagen
Imagen
Filmaffinity | IMDb

Guion: Sidney Gilliat, Frank Launder, Val Valentine (Novela: Winston Graham)
Música: William Alwyn
Fotografía: Gerald Gibbs (B&W)
Reparto: Jack Hawkins, Arlene Dahl, Dennis Price, Violet Farebrother, Ian Hunter, Malcolm Keen, Geoffrey Keen, Patrick Holt, John Robinson, Michael Goodliffe, Martin Lane, Bernard Miles, Christopher Lee, Greta Gynt, John Phillips
Productora: Individual Pictures / John Harvel Productions
Género: Cine negro | Drama | Crimen

Storyline

Oliver Bramwell, an insurance inspector, arrives at Lewis Manor where he is to investigate a fire that broke out there on Christmas Eve. He rings the bell and to his amazement he finds himself face to face with Sarah, the woman he once loved in Hong Kong and who, one day, disappeared from his life without apparent reason. Love resurfaces and when Tracey, the owner of the manor and Sarah's husband, dies in a second fire, the couple is reunited. Nevertheless, Oliver suspects Sarah of having tricked him and murdered Tracey with a view to attaining her ends. Fortunately his suspicions are allayed and he can marry Sarah. They are first very happy, until a blackmailer starts preying on them...

Written by Guy Bellinger
Oliver Branwell (Jack Hawkins) is an honest, decent man, dedicated to his job as an insurance claims assessor -- until he makes a business call, to assess the damage from a fire, on Tracey Moreton (Dennis Price) and meets Morton's wife Sarah (Arlene Dahl), with whom Oliver had been involved romantically five years earlier. He's thrown off balance by her presence and the seeming friendliness of Tracey and his mother (Violet Fairbrother), both members of the upper-class who have found their lifestyle squeezed and trimmed back by England's dire postwar economy and taxes. But soon, Oliver finds himself in more than a personally awkward position over his friendship with Tracey and lingering attraction to Sarah -- he accidentally uncovers evidence of a massive insurance fraud committed by Tracey, and doesn't want to report it for fear of implicating Sarah. And matters only get worse when Tracey's family home is burned to the ground, in a fire that was definitely arson, killing Tracey (or did it?) in the process. And just when Oliver's dilemma seemingly couldn't get worse, he and the newly-widowed Sarah are married. And then the police start sniffing around, along with a blackmailer (Bernard Miles) who is after a share of the 30,000 pounds insurance that Sarah collected on Tracey's life.

Gracias a quienes compartieron el BD.
Spoiler:
Dadas las (extrañas) circunstancias en las que actualmente parecemos movernos en el mundo p2p (en especial, en lo relativo a los trackers privados), de aquí en adelante haré "agradecimientos genéricos" a quienes compartieron la fuente original y no enlazaré a dicha fuente original en mis posts.
Disculpen las molestias
Detalles de la edición


------------------------------

Configuración del ripeo (vídeo / audio):


QAAC (para AAC):
qaac -V 127 --ignorelength --adts --no-delay -o



Imagen
Imagen
Imagen
Imagen
Imagen
Imagen
Imagen
Imagen
Imagen
Imagen


Código: Seleccionar todo

Format : Matroska 
Format version : Version 4 
File size : 14.6 GiB 
Duration : 1 h 34 min 
Overall bit rate mode : Variable 
Overall bit rate : 22.1 Mb/s 
Movie name : She Played with Fire (1957) 
Writing application : mkvmerge v37.0.0 ('Leave It') 64-bit 
Writing library : libebml v1.3.9 + libmatroska v1.5.2 

Video 
ID : 1 
Format : AVC 
Format/Info : Advanced Video Codec 
Format profile : High@L4.1 
Format settings : CABAC / 4 Ref Frames 
Format settings, CABAC : Yes 
Format settings, Reference frames : 4 frames 
Codec ID : V_MPEG4/ISO/AVC 
Duration : 1 h 34 min 
Bit rate mode : Variable 
Bit rate : 22.0 Mb/s 
Maximum bit rate : 30.0 Mb/s 
Width : 1 920 pixels 
Height : 1 040 pixels 
Original height : 1 080 pixels 
Display aspect ratio : 16:9 
Frame rate mode : Constant 
Frame rate : 23.976 (24000/1001) FPS 
Standard : NTSC 
Color space : YUV 
Chroma subsampling : 4:2:0 
Bit depth : 8 bits 
Scan type : Progressive 
Bits/(Pixel*Frame) : 0.459 
Stream size : 14.5 GiB (99%) 
Language : English 
Default : Yes 
Forced : No 
Color range : Limited 
Color primaries : BT.709 
Transfer characteristics : BT.709 
Matrix coefficients : BT.709 

Audio 
ID : 2 
Format : AAC LC 
Format/Info : Advanced Audio Codec Low Complexity 
Codec ID : A_AAC-2 
Duration : 1 h 34 min 
Bit rate : 118 kb/s 
Channel(s) : 1 channel 
Channel layout : C 
Sampling rate : 48.0 kHz 
Frame rate : 46.875 FPS (1024 SPF) 
Compression mode : Lossy 
Stream size : 80.1 MiB (1%) 
Language : English 
Writing library : qaac 2.68, CoreAudioToolbox 7.10.9.0
Encoding settings : qaac -V 127 --ignorelength --adts --no-delay -o
VBR min./avg./max. : 4 / 120 / 261 Kb/s. 
Duration.......... : 5678.933 sec., (1h. 34m. 38.933s.)
Default : Yes 
Forced : No 

Text #1 
ID : 3 
Format : UTF-8 
Codec ID : S_TEXT/UTF8 
Codec ID/Info : UTF-8 Plain Text 
Duration : 1 h 30 min 
Bit rate : 82 b/s 
Count of elements : 1459 
Stream size : 55.0 KiB (0%) 
Language : Spanish 
Default : Yes 
Forced : No 

Text #2 
ID : 4 
Format : UTF-8 
Codec ID : S_TEXT/UTF8 
Codec ID/Info : UTF-8 Plain Text 
Duration : 1 h 30 min 
Bit rate : 76 b/s 
Count of elements : 1632 
Stream size : 51.0 KiB (0%) 
Language : English 
Default : No 
Forced : No 

Text #3 
ID : 5 
Format : UTF-8 
Codec ID : S_TEXT/UTF8 
Codec ID/Info : UTF-8 Plain Text 
Duration : 1 h 34 min 
Bit rate : 79 b/s 
Count of elements : 1728 
Stream size : 55.0 KiB (0%) 
Title : English SDH 
Language : English 
Default : No 
Forced : No 

Menu 
00:00:00.000 : en:Cpt. 01 
00:03:13.902 : en:Cpt. 02 
00:08:41.438 : en:Cpt. 03 
00:13:30.560 : en:Cpt. 04 
00:19:08.230 : en:Cpt. 05 
00:21:45.888 : en:Cpt. 06 
00:26:40.015 : en:Cpt. 07 
00:33:14.910 : en:Cpt. 08 
00:41:50.758 : en:Cpt. 09 
00:48:36.831 : en:Cpt. 10 
00:52:25.893 : en:Cpt. 11 
00:57:23.357 : en:Cpt. 12 
01:02:19.986 : en:Cpt. 13 
01:07:15.281 : en:Cpt. 14 
01:14:25.461 : en:Cpt. 15 
01:24:33.777 : en:Cpt. 16 
01:34:07.058 : en:Cpt. 17

:arrow: BDRemux V.O. 1080p, con subtítulos en español e inglés en el contenedor MKV (14.62 GBs)

:arrow: Subtítulos por separado
, por si alguien los necesita para... (125 KBs)

¡¡¡¡OJO AL TÍTULO!!!! :mrgreen: :mrgreen: :mrgreen:

Los subtítulos en español son los traducidos nuevamente por hammett, a partir de los English subs resincronizados línea a línea, y con ajuste adicional de líneas por parte de hammett.
Extraordinario trabajo, una vez más.




:arrow: Cómo buscar archivos en emule. Necesario para buscar lo anterior...





----------------------------------------------------


Imagen Imagen

Última versión del codec x264 (inglés) | Cómo crear BDRips MKV/x264 con UsEac3To + MeGui (español)
Manual de ripeo con x264 en línea de comandos (español) (1) (2) (3) | Parámetros de codificación (inglés)
Matroska en wikipedia (español) | MKVToolnix, herramientas de edición para matroska (inglés) | Añadir cadenas de audio o subtítulos con MKVToolnix (español)
gMKVExtractGUI (inglés) | MKVExtractGui (inglés) | Manual de extracción de cadenas de audio/vídeo/subtítulos en MKV (español)
Última edición por roisiano el 07 Oct 2019, 09:52, editado 1 vez en total.
A partir de ahora, no contestaré a cuestiones que se me planteen en los foros. Sólo contestaré mensajes privados.
----------------
From now on, I will not answer to messages in the forums. I will only answer private messages.

Avatar de Usuario
yojimbo
 
Mensajes: 8842
Registrado: 18 Oct 2012, 14:25
Agradecido : 8741 veces
Agradecimiento recibido: 2094 veces

Re: Fortune Is a Woman (Sidney Gilliat, 1957) BDRip 1080p VO SE

Mensaje por yojimbo » 06 Oct 2019, 12:20

Muchas gracias, roisiano y hammett.

jorobado7
 
Mensajes: 1779
Registrado: 16 Oct 2012, 15:08
Agradecido : 437 veces
Agradecimiento recibido: 2057 veces

Re: Fortune Is a Woman (Sidney Gilliat, 1957) BDRip 1080p VO SE

Mensaje por jorobado7 » 06 Oct 2019, 13:48

gran trabajo, roisiano y hammett.

Avatar de Usuario
tonapar1
 
Mensajes: 4066
Registrado: 16 Oct 2012, 20:19
Agradecido : 1055 veces
Agradecimiento recibido: 1104 veces

Re: Fortune Is a Woman (Sidney Gilliat, 1957) BDRip 1080p VO SE

Mensaje por tonapar1 » 06 Oct 2019, 19:12

Muchas gracias por el ripeo y los subs a roisiano y a hammett. Un saludo.

Avatar de Usuario
Monsieur Lange
 
Mensajes: 4128
Registrado: 13 Sep 2012, 19:39
Ubicación: Cruzando las dunas
Agradecido : 896 veces
Agradecimiento recibido: 1197 veces

Re: Fortune Is a Woman (Sidney Gilliat, 1957) BDRip 1080p VO SE

Mensaje por Monsieur Lange » 06 Oct 2019, 21:45

Muchas gracias roisiano y Hammett por el ripeo y los subtítulos.
"Adaptar no es recalentar la comida"
Alain Resnais

Responder

Volver a “Cine de Reestreno”