Touch of Evil (Orson Welles, 1958) Ver índice

Puntuación
8,6/10
9 votos

Sed de mal (Theatrical cut) (Doblaje Cines 1961 (Parches TVE 1982))

Moderador: mifune

Responder
Avatar de Usuario
Monsieur Lange
 
Mensajes: 4075
Registrado: 13 Sep 2012, 19:39
Ubicación: Cruzando las dunas
Agradecido : 846 veces
Agradecimiento recibido: 1187 veces

Re: Touch of Evil (Orson Welles, 1958) BDRip 720p Dual

Mensaje por Monsieur Lange » 22 Ago 2019, 01:42

Muchas gracias DCINE y al resto de implicados.
"Adaptar no es recalentar la comida"
Alain Resnais

Avatar de Usuario
DCINE
 
Mensajes: 1528
Registrado: 30 Jul 2016, 20:09
Agradecido : 875 veces
Agradecimiento recibido: 2846 veces

Estados Unidos Touch of evil (Orson Welles, 1958) BDRip 720p Trial SI

Mensaje por DCINE » 23 Ago 2019, 09:44

Hilo anterior
Sed de mal
(Touch of evil)

1958
Preview Version 1975

Imagen



DIRECTOR: Orson Welles
PRODUCTORA: Universal Pictures
GUIÓN: Orson Welles (Novela: Whit Masterson)
MÚSICA: Henry Mancini
FOTOGRAFÍA: Russell Metty (B&W)



Imagen





ARGUMENTO Un agente de la policía de narcóticos (Heston) llega a la frontera mexicana con su esposa justo en el momento en que explota una bomba. Inmediatamente se hace cargo de la investigación contando con la colaboración de Quinlan (Welles), el jefe de la policía local, muy conocido en la zona por sus métodos expeditivos y poco ortodoxos. Una lucha feroz se desata entre los dos hombres, pues cada uno de ellos tiene pruebas contra el otro. (FILMAFFINITY) IMDB: https://www.imdb.com/title/tt0052311/

ImagenImagen
ImagenImagen
ImagenImagen
ImagenImagen
Imagen


Reparto: Charlton Heston, Janet Leigh, Orson Welles, Marlene Dietrich, Joseph Calleia, Akim Tamiroff, Dennis Weaver, Ray Collins, Mercedes McCambridge, Joseph Cotten, Zsa Zsa Gabor

ImagenImagen



Datos técnicos

Video: Ripeo propio codificado a 720p del BD de Eureka procedente de KG, copia en widescreen

Audio: DTS codificado en AC-3

Doblaje: Se incluyen dos

El clásico de su estreno en 1961, el de la emisión de emisión por TVE en 1987 con los parches del 82 y los que se realizaron para dicha emisión, gracias a carlos en mangaclassics, como dije en el post del anterior montaje, notareis que el audio del doblaje se escucha como un disco de vinilo rayado (parece sacado de un 16mm). Si habéis visto el montaje del 58, notareis que algunos de los parches son redoblados, ya que existe doblaje clásico para ellos, podía haber hecho un apaño, pero quería salvaguardarlos. La sincro fue muy fácil, solo necesitaba uno reajustes.

El de TVE para su emisión en 1993, gracias a una copia subida al blog Padre Logan por davideomuic73. En cambio, la sincro de este fue regular, requería bastantes reajustes, faltan dos frases (por los típicos cambios de rollo).



Subtítulos: Si, en ingles en PGS


Mi agradecimiento a santi(agoo) por ayudarne a lanzar el ripeo

Código: Seleccionar todo

General:

Complete name                    : 1958 Sed de mal (Touch of Evil) (Welles) (P. Version 1975) BDRip 720p (Spa (Doblaje Cines 1961 (Parches 1982 y 1987) - TVE 1993)-Eng) SI by DCINE.mkv
Format                           : Matroska
Format version                   : Version 4 / Version 2
File size                        : 6.40 GiB
Duration                         : 1h 48mn
Overall bit rate                 : 8 410 Kbps
Movie name                       : 1958 Sed de mal/Touch of Evil (Orson Welles, 1958) (Preview Version 1975) BDRip 720p Trial (Spa (Doblaje Cines 1961 (Parches TVE 1982 y 1987/Doblaje TVE 1993))-Eng) SI by DCINE.mkv
Encoded date                     : UTC 2019-07-14 20:16:34
Writing application              : mkvmerge v7.1.0 ('Good Love') 32bit built on Jul 27 2014 12:59:18
Writing library                  : libebml v1.3.0 + libmatroska v1.4.1
_STATISTICS_WRITING_APP          : mkvmerge v7.1.0 ('Good Love') 32bit built on Jul 27 2014 12:59:18
_STATISTICS_WRITING_DATE_UTC     : 2019-07-14 20:16:34
_STATISTICS_TAGS                 : BPS DURATION NUMBER_OF_FRAMES NUMBER_OF_BYTES
DURATION                         : 01:48:59.840000000
NUMBER_OF_FRAMES                 : 204370
NUMBER_OF_BYTES                  : 183115520

Video
ID                               : 1
Format                           : AVC
Format/Info                      : Advanced Video Codec
Format profile                   : High@L4.1
Format settings, CABAC           : Yes
Format settings, ReFrames        : 9 frames
Codec ID                         : V_MPEG4/ISO/AVC
Duration                         : 1h 48mn
Bit rate                         : 7 603 Kbps
Width                            : 1 280 pixels
Height                           : 694 pixels
Display aspect ratio             : 16:9
Frame rate mode                  : Variable
Frame rate                       : 23.976 fps
Color space                      : YUV
Chroma subsampling               : 4:2:0
Bit depth                        : 8 bits
Scan type                        : Progressive
Bits/(Pixel*Frame)               : 0.357
Stream size                      : 5.79 GiB (90%)
Writing library                  : x264 core 155 r2901 7d0ff22
Encoding settings                : cabac=1 / ref=9 / deblock=1:0:0 / analyse=0x3:0x133 / me=umh / subme=10 / psy=1 / psy_rd=1.00:0.00 / mixed_ref=1 / me_range=24 / chroma_me=1 / trellis=2 / 8x8dct=1 / cqm=0 / deadzone=21,11 / fast_pskip=1 / chroma_qp_offset=-2 / threads=3 / lookahead_threads=1 / sliced_threads=0 / nr=0 / decimate=1 / interlaced=0 / bluray_compat=0 / constrained_intra=0 / bframes=8 / b_pyramid=2 / b_adapt=2 / b_bias=0 / direct=3 / weightb=1 / open_gop=0 / weightp=2 / keyint=240 / keyint_min=24 / scenecut=40 / intra_refresh=0 / rc_lookahead=60 / rc=crf / mbtree=1 / crf=19.0 / qcomp=0.60 / qpmin=0 / qpmax=69 / qpstep=4 / vbv_maxrate=62500 / vbv_bufsize=78125 / crf_max=0.0 / nal_hrd=none / filler=0 / ip_ratio=1.40 / aq=1:1.00
Default                          : Yes
Forced                           : No
_STATISTICS_WRITING_APP          : mkvmerge v7.1.0 ('Good Love') 32bit built on Jul 27 2014 12:59:18
_STATISTICS_WRITING_DATE_UTC     : 2019-07-14 20:16:34
_STATISTICS_TAGS                 : BPS DURATION NUMBER_OF_FRAMES NUMBER_OF_BYTES
DURATION                         : 01:48:59.784000000
NUMBER_OF_FRAMES                 : 156797
NUMBER_OF_BYTES                  : 6337681901
Color primaries                  : BT.709-5, BT.1361, IEC 61966-2-4, SMPTE RP177
Transfer characteristics         : BT.709-5, BT.1361
Matrix coefficients              : BT.709-5, BT.1361, IEC 61966-2-4 709, SMPTE RP177

Audio #1
ID                               : 2
Format                           : AC-3
Format/Info                      : Audio Coding 3
Mode extension                   : CM (complete main)
Codec ID                         : A_AC3
Duration                         : 1h 48mn
Bit rate mode                    : Constant
Bit rate                         : 224 Kbps
Channel(s)                       : 2 channels
Channel positions                : Front: L R
Sampling rate                    : 48.0 KHz
Bit depth                        : 16 bits
Compression mode                 : Lossy
Stream size                      : 175 MiB (3%)
Title                            : Doblaje Cines 1961 (Parches TVE 1982 y 1987)
Language                         : Spanish
Default                          : Yes
Forced                           : No

Audio #2
ID                               : 3
Format                           : AC-3
Format/Info                      : Audio Coding 3
Mode extension                   : CM (complete main)
Codec ID                         : A_AC3
Duration                         : 1h 48mn
Bit rate mode                    : Constant
Bit rate                         : 224 Kbps
Channel(s)                       : 2 channels
Channel positions                : Front: L R
Sampling rate                    : 48.0 KHz
Bit depth                        : 16 bits
Compression mode                 : Lossy
Stream size                      : 175 MiB (3%)
Title                            : Doblaje TVE 1993
Language                         : Spanish
Default                          : No
Forced                           : No

Audio #3
ID                               : 4
Format                           : AC-3
Format/Info                      : Audio Coding 3
Mode extension                   : CM (complete main)
Codec ID                         : A_AC3
Duration                         : 1h 48mn
Bit rate mode                    : Constant
Bit rate                         : 192 Kbps
Channel(s)                       : 2 channels
Channel positions                : Front: L R
Sampling rate                    : 48.0 KHz
Bit depth                        : 16 bits
Compression mode                 : Lossy
Stream size                      : 150 MiB (2%)
Language                         : English
Default                          : No
Forced                           : No

Text
ID                               : 5
Format                           : PGS
Muxing mode                      : zlib
Codec ID                         : S_HDMV/PGS
Codec ID/Info                    : The same subtitle format used on BDs/HD-DVDs
Language                         : English
Default                          : No
Forced                           : No



Capturas:


Imagen Imagen
Imagen Imagen
Imagen



Enlace:

eD2K link 1958 Sed de mal (Touch of Evil) (Welles) (P. Version 1975) BDRip 720p (Spa (Dobla... SI by DCINE.mkv [6.40 Gb] 

DD:

https://drive.google.com/file/d/1Ed0Lsy ... t_dwt/view

Y la semana que viene, el montaje del 98, con una nueva sincro del doblaje clásico

Avatar de Usuario
Thornton
 
Mensajes: 12
Registrado: 25 Oct 2012, 19:49
Agradecimiento recibido: 2 veces

Re: Touch of evil (Orson Welles, 1958) BDRip 720p Trial SI

Mensaje por Thornton » 23 Ago 2019, 10:43

Muchas gracias DCINE y Santiagoo.

Saludos.

ethanedwards
 
Mensajes: 226
Registrado: 14 Nov 2012, 16:09
Agradecido : 410 veces
Agradecimiento recibido: 98 veces

Re: Touch of Evil (Orson Welles, 1958) BDRip 720p Dual

Mensaje por ethanedwards » 23 Ago 2019, 11:19

Santino escribió:
16 Ago 2019, 21:32
Ya he salido de dudas con respecto a la relación de aspecto de esta obra maestra, tiene que ser 4:3 sí o sí. Las imágenes hablan por sí solas:

Imagen

Imagen

Un encuadre en plano general donde le rebanas el "celebro" al actor y además tratándose de un purista como Welles es imposible que sea correcto.

Otras muestras, se va medio pecho de la Leigh:

Imagen

Imagen

Con la moda de adaptar las pelis a las teles panorámicas han llegado estos despropósitos. Además no se gana información alguna por los lados, es un puro recorte cutre.

Viendo esto no tengo claro que la reconstruída sea verdaderamente el deseo de Welles, aunque se dice que la versión de cines tiene escenas que rodaron otros directores a espaldas del genio.
En aquella época todas las películas se rodaban en formato panorámico o directamente en Scope.

SED DE MAL se estrenó en salas comerciales en los EEUU en mayo de 1958 con un AR de 1.85:1.

Imagen

No tiene lógica que Welles sabiendo que la película se estrenaría en panorámico no lo hubiese tenido en cuenta a la hora de elaborar los encuadres.

Otra cosa es que sabiendo que la película, cuando se emitiese por televisión, lo haría con un AR de 1.33:1, lo tuviese en cuenta en la planificación de la película de tal forma que la imagen no sufriese una sensible merma.

ethanedwards
 
Mensajes: 226
Registrado: 14 Nov 2012, 16:09
Agradecido : 410 veces
Agradecimiento recibido: 98 veces

Re: Touch of evil (Orson Welles, 1958) BDRip 720p Trial SI

Mensaje por ethanedwards » 23 Ago 2019, 13:14

Espléndido aporte, amigo DCINE.

SED DE MAL es, en mi modesta opinión, una de las grandes obras maestras de Orson Welles.

Y tanto que se le critican las posturas ideológicas extremas de su protagonista, el siempre excelente Charlton Heston, pero gracias a él la película pudo concluirse, en contra del criterio de los productores (como pasaría más tarde con MAYOR DUNDEE de Sam Peckinpah).

Santino
 
Mensajes: 432
Registrado: 05 May 2015, 13:14
Agradecido : 178 veces
Agradecimiento recibido: 457 veces

Re: Touch of Evil (Orson Welles, 1958) BDRip 720p Dual

Mensaje por Santino » 25 Ago 2019, 12:52

ethanedwards escribió:
23 Ago 2019, 11:19
Santino escribió:
16 Ago 2019, 21:32
Ya he salido de dudas con respecto a la relación de aspecto de esta obra maestra, tiene que ser 4:3 sí o sí. Las imágenes hablan por sí solas:

Imagen

Imagen

Un encuadre en plano general donde le rebanas el "celebro" al actor y además tratándose de un purista como Welles es imposible que sea correcto.

Otras muestras, se va medio pecho de la Leigh:

Imagen

Imagen

Con la moda de adaptar las pelis a las teles panorámicas han llegado estos despropósitos. Además no se gana información alguna por los lados, es un puro recorte cutre.

Viendo esto no tengo claro que la reconstruída sea verdaderamente el deseo de Welles, aunque se dice que la versión de cines tiene escenas que rodaron otros directores a espaldas del genio.
En aquella época todas las películas se rodaban en formato panorámico o directamente en Scope.

SED DE MAL se estrenó en salas comerciales en los EEUU en mayo de 1958 con un AR de 1.85:1.

Imagen

No tiene lógica que Welles sabiendo que la película se estrenaría en panorámico no lo hubiese tenido en cuenta a la hora de elaborar los encuadres.

Otra cosa es que sabiendo que la película, cuando se emitiese por televisión, lo haría con un AR de 1.33:1, lo tuviese en cuenta en la planificación de la película de tal forma que la imagen no sufriese una sensible merma.
A ver, en 1.85:1 sigue siendo una obra maestra y es un formato, digamos, autorizado pero no el más adecuado ni el único en el que fue exhibida. El formato correcto en el que debe verse la película es en 1.37:1, que Welles rodó teniendo en cuenta que habría cines que harían el tapado del encuadre a 1.85:1 como es el caso que muestras. No tiene nada que ver con que pensara que iban a emitirla por TV.

Es como lo que ocurrió en On the waterfront que es sólo 3 años anterior, en este pequeño documental se explica cómo va el asunto. Depende de lo que decida la sala, si quieren exhibirla en panorámico, tapan y listo:

https://www.youtube.com/watch?v=s7-aMi4Rr-4

Ahí se puede ver cómo el formato 1.85:1 en películas rodadas en 1.37:1 se merienda cosas muy importantes del encuadre hasta el punto de no verse lo que hace un actor, como con el caso de la bola de billar. Concluyen que lo mejor en On the waterfront sería el 1.66:1 por ser el favorito de su director de foto. El de Welles era el 1.37:1, de hecho, hasta incluso The other side of the wind siendo posterior y montándola en 2018 (la era de la TV panorámica), la han dejado en 1.37:1 siendo Netflix una plataforma para ver cine en casa… por algo será.

Ver esta película, Sed de mal, en 1.85:1 es perder un porcentaje importante de la información, los maravillosos cielos y techos wellesianos que se ven en toda su obra quedan aquí cercenados. Es un simple tapado, no se añade información por los laterales en una copia panorámica como sí ocurre con otras películas. Además, es la única de toda su obra como director tapada hasta el 1.85:1, como máximo tiene 3 en 1.66:1 que me dejan dudas.

Por supuesto, ver Sed de mal en 1.37:1 es ver otra película. Habiendo visto ya las 3 versiones concluyo que la mejor es en 1.37:1 y la que montó Walter Murch, ya que la theatrical está montada a hachazos y se nota que los productores quitaron cosas esenciales a espaldas de Welles. Para interesados en esa versión en 1.37:1 que intenta reconstruir la versión que Welles quería, aquí os dejo el enlace:

eD2K link Sed.de.Mal.Reconstruida.1958.Orson.Welles.Touch.of.Evil.Fullscreen.BDrip.720p.Tri...das6666.HDCL.mkv [5.73 Gb] 

Va con el doblaje original y subtítulos.

Avatar de Usuario
DCINE
 
Mensajes: 1528
Registrado: 30 Jul 2016, 20:09
Agradecido : 875 veces
Agradecimiento recibido: 2846 veces

Re: Touch of Evil (Orson Welles, 1958) BDRip 720p Dual

Mensaje por DCINE » 25 Ago 2019, 13:52

También voy a publicar ese montaje (el próximo viernes), con una nueva sincro del doblaje

Avatar de Usuario
DCINE
 
Mensajes: 1528
Registrado: 30 Jul 2016, 20:09
Agradecido : 875 veces
Agradecimiento recibido: 2846 veces

Estados Unidos Touch of evil (Orson Welles, 1958) BDRip 720p Dual Multisubs

Mensaje por DCINE » 30 Ago 2019, 10:09

Hilo anterior
Sed de mal
(Touch of evil)

1958
Reconstructed Version 1998

Imagen



DIRECTOR: Orson Welles
PRODUCTORA: Universal Pictures
GUIÓN: Orson Welles (Novela: Whit Masterson)
MÚSICA: Henry Mancini
FOTOGRAFÍA: Russell Metty (B&W)



Imagen





ARGUMENTO Un agente de la policía de narcóticos (Heston) llega a la frontera mexicana con su esposa justo en el momento en que explota una bomba. Inmediatamente se hace cargo de la investigación contando con la colaboración de Quinlan (Welles), el jefe de la policía local, muy conocido en la zona por sus métodos expeditivos y poco ortodoxos. Una lucha feroz se desata entre los dos hombres, pues cada uno de ellos tiene pruebas contra el otro. (FILMAFFINITY) IMDB: https://www.imdb.com/title/tt0052311/

ImagenImagen
ImagenImagen
ImagenImagen
ImagenImagen
Imagen


Reparto: Charlton Heston, Janet Leigh, Orson Welles, Marlene Dietrich, Joseph Calleia, Akim Tamiroff, Dennis Weaver, Ray Collins, Mercedes McCambridge, Joseph Cotten, Zsa Zsa Gabor

ImagenImagen



Datos técnicos

Video: Ripeo de Sergey40001 procedente de 7tor codificado a 720p del BD de Eureka procedente de KG, copia en widescreen

Audio: Ya codificado en AC-3, incluye pista de audiocomentarios

Doblaje:
El clásico de su estreno en 1961. Para este montaje, en vez de reciclar el audio de jmac1972, he hecho mi propia sincro, reajustando el audio ya sincronizado al theatrical y añadiendlo lo que faltaba del audio del Preview cut, es decir, tenemos el doblaje clásico combinado con los parches de TVE en 1982, los del 87 más fragmentos del doblaje de TVE en 1993 y el del DVD en 2003

Subtítulos: Si, 21 pistas de subs, procedentes de opensubtítles, menos los españoles, que proceden de subdivx

En Español, Ingles, Italiano, Francés, Alemán, Griego, Turco, Polaco, Serbio, Sueco, Árabe, Hebreo, Portugués, Noruego, Ruso, Checo, Bosnio, Rumano, Esloveno, Danés y Turco.


Mi agradecimiento a santi(agoo) por ayudarne a lanzar el ripeo

Código: Seleccionar todo

General:

Complete name                    : 1958 Sed de mal (Touch of Evil) (Welles) (Reconstructed Version 1998) BDRip 720p (Spa (Doblaje Cines 1961)-Eng) Subs by Sergey40001-DCINE.mkv
Format                           : Matroska
Format version                   : Version 4 / Version 2
File size                        : 7.69 GiB
Duration                         : 1h 50mn
Overall bit rate                 : 9 933 Kbps
Movie name                       : 1958 Sed de mal/Touch of Evil (Orson Welles, 1958) (Reconstructed Version 1998) BDRip 720p Dual (Spa (Doblaje Cines 1961  (Parches TVE 1982 y 1987 + Doblaje TVE 1993 y Doblaje DVD 2003))-Eng) Multisubsby Sergey40001-DCINE.mkv
Encoded date                     : UTC 2019-08-13 17:00:50
Writing application              : mkvmerge v7.1.0 ('Good Love') 32bit built on Jul 27 2014 12:59:18
Writing library                  : libebml v1.3.0 + libmatroska v1.4.1
_STATISTICS_WRITING_APP          : mkvmerge v7.1.0 ('Good Love') 32bit built on Jul 27 2014 12:59:18
_STATISTICS_WRITING_DATE_UTC     : 2019-08-13 17:00:50
_STATISTICS_TAGS                 : BPS DURATION NUMBER_OF_FRAMES NUMBER_OF_BYTES
DURATION                         : 01:48:19.500000000
NUMBER_OF_FRAMES                 : 1419
NUMBER_OF_BYTES                  : 59693
Attachment                       : Yes / Yes

Video
ID                               : 1
Format                           : AVC
Format/Info                      : Advanced Video Codec
Format profile                   : High@L4.1
Format settings, CABAC           : Yes
Format settings, ReFrames        : 9 frames
Codec ID                         : V_MPEG4/ISO/AVC
Duration                         : 1h 50mn
Bit rate                         : 9 000 Kbps
Width                            : 1 280 pixels
Height                           : 696 pixels
Display aspect ratio             : 16:9
Frame rate                       : 23.976 fps
Color space                      : YUV
Chroma subsampling               : 4:2:0
Bit depth                        : 8 bits
Scan type                        : Progressive
Bits/(Pixel*Frame)               : 0.421
Stream size                      : 6.96 GiB (91%)
Writing library                  : x264 core 120 r2120 0c7dab9
Encoding settings                : cabac=1 / ref=9 / deblock=1:-3:-3 / analyse=0x3:0x113 / me=umh / subme=11 / psy=1 / psy_rd=0.95:0.00 / mixed_ref=1 / me_range=48 / chroma_me=1 / trellis=2 / 8x8dct=1 / cqm=0 / deadzone=21,11 / fast_pskip=1 / chroma_qp_offset=-2 / threads=12 / sliced_threads=0 / nr=0 / decimate=1 / interlaced=0 / bluray_compat=0 / constrained_intra=0 / bframes=9 / b_pyramid=2 / b_adapt=2 / b_bias=0 / direct=1 / weightb=1 / open_gop=0 / weightp=2 / keyint=250 / keyint_min=23 / scenecut=40 / intra_refresh=0 / rc_lookahead=40 / rc=crf / mbtree=0 / crf=17.0 / qcomp=0.60 / qpmin=0 / qpmax=69 / qpstep=4 / vbv_maxrate=50000 / vbv_bufsize=62500 / crf_max=0.0 / nal_hrd=none / ip_ratio=1.40 / pb_ratio=1.30 / aq=1:0.75
Language                         : English
Default                          : Yes
Forced                           : No
_STATISTICS_WRITING_APP          : mkvmerge v7.1.0 ('Good Love') 32bit built on Jul 27 2014 12:59:18
_STATISTICS_WRITING_DATE_UTC     : 2019-08-13 17:00:50
_STATISTICS_TAGS                 : BPS DURATION NUMBER_OF_FRAMES NUMBER_OF_BYTES
DURATION                         : 01:50:47.641000000
NUMBER_OF_FRAMES                 : 159384
NUMBER_OF_BYTES                  : 7637882170
Matrix coefficients              : BT.709-5, BT.1361, IEC 61966-2-4 709, SMPTE RP177

Audio #1
ID                               : 2
Format                           : AC-3
Format/Info                      : Audio Coding 3
Mode extension                   : CM (complete main)
Codec ID                         : A_AC3
Duration                         : 1h 50mn
Bit rate mode                    : Constant
Bit rate                         : 224 Kbps
Channel(s)                       : 2 channels
Channel positions                : Front: L R
Sampling rate                    : 48.0 KHz
Bit depth                        : 16 bits
Compression mode                 : Lossy
Stream size                      : 178 MiB (2%)
Title                            : Doblaje Cines 1961 (Parches TVE 1982 y 1987 + Doblaje TVE 1993 y Doblaje DVD 2003)
Default                          : Yes
Forced                           : No

Audio #2
ID                               : 3
Format                           : AC-3
Format/Info                      : Audio Coding 3
Mode extension                   : CM (complete main)
Codec ID                         : A_AC3
Duration                         : 1h 50mn
Bit rate mode                    : Constant
Bit rate                         : 320 Kbps
Channel(s)                       : 2 channels
Channel positions                : Front: L R
Sampling rate                    : 48.0 KHz
Bit depth                        : 16 bits
Compression mode                 : Lossy
Stream size                      : 254 MiB (3%)
Title                            : Original AC3 2.0 @ 320kbps
Language                         : English
Default                          : No
Forced                           : No

Audio #3
ID                               : 4
Format                           : AC-3
Format/Info                      : Audio Coding 3
Mode extension                   : CM (complete main)
Codec ID                         : A_AC3
Duration                         : 1h 50mn
Bit rate mode                    : Constant
Bit rate                         : 192 Kbps
Channel(s)                       : 2 channels
Channel positions                : Front: L R
Sampling rate                    : 48.0 KHz
Bit depth                        : 16 bits
Compression mode                 : Lossy
Stream size                      : 152 MiB (2%)
Title                            : Commentary AC-3 2.0 @ 192kbps
Language                         : English
Default                          : No
Forced                           : No

Text #1
ID                               : 5
Format                           : UTF-8
Codec ID                         : S_TEXT/UTF8
Codec ID/Info                    : UTF-8 Plain Text
Language                         : Spanish
Default                          : No
Forced                           : No

Text #2
ID                               : 6
Format                           : UTF-8
Codec ID                         : S_TEXT/UTF8
Codec ID/Info                    : UTF-8 Plain Text
Language                         : English
Default                          : No
Forced                           : No

Text #3
ID                               : 7
Format                           : UTF-8
Codec ID                         : S_TEXT/UTF8
Codec ID/Info                    : UTF-8 Plain Text
Language                         : Italian
Default                          : No
Forced                           : No

Text #4
ID                               : 8
Format                           : UTF-8
Codec ID                         : S_TEXT/UTF8
Codec ID/Info                    : UTF-8 Plain Text
Language                         : French
Default                          : No
Forced                           : No

Text #5
ID                               : 9
Format                           : UTF-8
Codec ID                         : S_TEXT/UTF8
Codec ID/Info                    : UTF-8 Plain Text
Language                         : German
Default                          : No
Forced                           : No

Text #6
ID                               : 10
Format                           : UTF-8
Codec ID                         : S_TEXT/UTF8
Codec ID/Info                    : UTF-8 Plain Text
Language                         : Greek
Default                          : No
Forced                           : No

Text #7
ID                               : 11
Format                           : UTF-8
Codec ID                         : S_TEXT/UTF8
Codec ID/Info                    : UTF-8 Plain Text
Language                         : Turkish
Default                          : No
Forced                           : No

Text #8
ID                               : 12
Format                           : UTF-8
Codec ID                         : S_TEXT/UTF8
Codec ID/Info                    : UTF-8 Plain Text
Language                         : Polish
Default                          : No
Forced                           : No

Text #9
ID                               : 13
Format                           : UTF-8
Codec ID                         : S_TEXT/UTF8
Codec ID/Info                    : UTF-8 Plain Text
Language                         : Serbian
Default                          : No
Forced                           : No

Text #10
ID                               : 14
Format                           : UTF-8
Codec ID                         : S_TEXT/UTF8
Codec ID/Info                    : UTF-8 Plain Text
Language                         : Swedish
Default                          : No
Forced                           : No

Text #11
ID                               : 15
Format                           : UTF-8
Codec ID                         : S_TEXT/UTF8
Codec ID/Info                    : UTF-8 Plain Text
Language                         : Arabic
Default                          : No
Forced                           : No

Text #12
ID                               : 16
Format                           : UTF-8
Codec ID                         : S_TEXT/UTF8
Codec ID/Info                    : UTF-8 Plain Text
Language                         : Hebrew
Default                          : No
Forced                           : No

Text #13
ID                               : 17
Format                           : UTF-8
Codec ID                         : S_TEXT/UTF8
Codec ID/Info                    : UTF-8 Plain Text
Language                         : Portuguese
Default                          : No
Forced                           : No

Text #14
ID                               : 18
Format                           : UTF-8
Codec ID                         : S_TEXT/UTF8
Codec ID/Info                    : UTF-8 Plain Text
Language                         : Norwegian
Default                          : No
Forced                           : No

Text #15
ID                               : 19
Format                           : UTF-8
Codec ID                         : S_TEXT/UTF8
Codec ID/Info                    : UTF-8 Plain Text
Language                         : Russian
Default                          : No
Forced                           : No

Text #16
ID                               : 20
Format                           : UTF-8
Codec ID                         : S_TEXT/UTF8
Codec ID/Info                    : UTF-8 Plain Text
Language                         : Czech
Default                          : No
Forced                           : No

Text #17
ID                               : 21
Format                           : UTF-8
Codec ID                         : S_TEXT/UTF8
Codec ID/Info                    : UTF-8 Plain Text
Language                         : Bosnian
Default                          : No
Forced                           : No

Text #18
ID                               : 22
Format                           : UTF-8
Codec ID                         : S_TEXT/UTF8
Codec ID/Info                    : UTF-8 Plain Text
Language                         : Romanian
Default                          : No
Forced                           : No

Text #19
ID                               : 23
Format                           : UTF-8
Codec ID                         : S_TEXT/UTF8
Codec ID/Info                    : UTF-8 Plain Text
Language                         : Slovenian
Default                          : No
Forced                           : No

Text #20
ID                               : 24
Format                           : UTF-8
Codec ID                         : S_TEXT/UTF8
Codec ID/Info                    : UTF-8 Plain Text
Language                         : Danish
Default                          : No
Forced                           : No

Text #21
ID                               : 25
Format                           : UTF-8
Codec ID                         : S_TEXT/UTF8
Codec ID/Info                    : UTF-8 Plain Text
Language                         : Turkish
Default                          : No
Forced                           : No

Menu
00:00:00.000                     : en:Chapter 1
00:00:47.839                     : en:Chapter 2
00:04:17.048                     : en:Chapter 3
00:08:05.358                     : en:Chapter 4
00:13:05.742                     : en:Chapter 5
00:15:43.150                     : en:Chapter 6
00:18:56.593                     : en:Chapter 7
00:21:46.013                     : en:Chapter 8
00:26:34.342                     : en:Chapter 9
00:31:59.959                     : en:Chapter 10
00:35:46.060                     : en:Chapter 11
00:52:44.703                     : en:Chapter 12
00:56:54.786                     : en:Chapter 13
00:58:51.319                     : en:Chapter 14
01:02:28.536                     : en:Chapter 15
01:09:42.094                     : en:Chapter 16
01:12:07.031                     : en:Chapter 17
01:18:57.649                     : en:Chapter 18
01:26:14.669                     : en:Chapter 19
01:31:26.772                     : en:Chapter 20
01:35:02.279                     : en:Chapter 21
01:46:49.319                     : en:Chapter 22


Capturas:


Imagen Imagen
Imagen Imagen
Imagen



Enlace:

eD2K link 1958 Sed de mal (Touch of Evil) (Welles) (Reconstructed Version 1998) BDRip 720p ...y40001-DCINE.mkv [7.69 Gb] 

DD:

https://drive.google.com/file/d/14RP7WE ... drive_open

Avatar de Usuario
tonapar1
 
Mensajes: 4003
Registrado: 16 Oct 2012, 20:19
Agradecido : 1037 veces
Agradecimiento recibido: 1097 veces

Re: Touch of evil (Orson Welles, 1958) BDRip 720p Dual Multisubs

Mensaje por tonapar1 » 30 Ago 2019, 15:32

Muchas gracias por la nueva version a dcine. Un saludo.

jail
 
Mensajes: 6007
Registrado: 18 Oct 2012, 15:34
Agradecido : 6572 veces
Agradecimiento recibido: 1825 veces

Re: Touch of evil (Orson Welles, 1958) BDRip 720p Dual Multisubs

Mensaje por jail » 30 Ago 2019, 15:35

Gracias, DCINE y santi.

Responder

Volver a “Largos Clásicos”