Come Back, Little Sheba (Daniel Mann, 1952) WEBRip 720 VOSE

Vuelve, pequeña Sheba

Ripeos nuevos y/o antiguos, de pelis ya posteadas.

Moderador: mifune

Reglas del Foro
Las puntuaciones están desactivadas en este subforo. Para puntuar debéis ir a cada hilo inicial en sus respectivos foros. Disculpad las molestias.
Responder
Avatar de Usuario
DMMD
 
Mensajes: 570
Registrado: 16 Oct 2012, 15:35
Agradecido : 348 veces
Agradecimiento recibido: 2311 veces

Estados Unidos Come Back, Little Sheba (Daniel Mann, 1952) WEBRip 720 VOSE

Mensaje por DMMD » 06 Dic 2018, 18:17

Come Back, Little Sheba

Daniel Mann, 1952




Imagen


Imagen




Vuelve, pequeña Sheba

Título original Come Back, Little Sheba
Año 1952
Duración 92 min.
País Imagen
Dirección Daniel Mann
Guion Ketti Frings (Obra: William Inge)
Música Franz Waxman
Fotografía James Wong Howe (B&W)
Reparto
Burt Lancaster, Shirley Booth, Terry Moore, Richard Jaeckel, Philip Ober, Edwin Max, Lisa Golm, Walter Kelley

Productora Paramount Pictures
Género Drama | Alcoholismo
Grupos Adaptaciones de William Inge
Sinopsis
Lola (Shirley Booth), es la descuidada esposa de Doc Delaney (Burt Lancaster), un alcohólico en vías de recuperación. La existencia de los Delaney resulta monótona y sin cambios, pero da un giro cuando el matrimonio acepta a una encantadora inquilina, Marie (Terry Moore). Marie se convierte en la hija que nunca tuvieron. Pero cuando la joven se enamora, Doc se ve preso de los celos y una vez más ha de enfrentarse a la tentación de la bebida... (FILMAFFINITY)

Premios
1952: Oscar: Mejor actriz (Shirley Booth). 3 nominaciones
1952: Globos de Oro: Mejor actriz drama (Booth). Nominada mejor película drama
1952: Círculo de Críticos de Nueva York: Mejor actriz (Booth)
1952: National Board of Review: Mejor actriz (Booth)
1953: Premios BAFTA: Nominada a mejor película y actriz extranjera (Shirley Booth)
1953: Sindicato de Directores (DGA): Nominada a Mejor director
1952: Sindicato de Guionistas (WGA): Nominada a Mejor guión drama





WEBRip 720p Vs Dvd Paramount Pictures (Ntsc)


Imagen
Imagen


WEBRip 720p Vs Dvd Paramount Pictures (Pal)

Imagen
Imagen




- Mejora de imagen respecto a las ediciones de dvd con mayor nitidez y profundidad, aunque se mantienen parte de los problemas que nos encontramos en el telecinado en las ediciones de dvd.


Código: Seleccionar todo

General
Unique ID                   : 313750584485460070009998609261350669451 (0xEC0A2A2174015271362FD4DFAA7CCC8B)
Complete name               : D:\Incoming\1952-Come.Back.Little.Sheba.WEBRip.720p.AAC[DMMD].mkv
Format                      : Matroska
Format version              : Version 4 / Version 2
File size                   : 2.37 GiB
Duration                    : 1 h 35 min
Overall bit rate            : 3 539 kb/s
Movie name                  : 1952-Come.Back.Little.Sheba.WEBRip.720p.AAC[DMMD].mkv
Encoded date                : UTC 2018-12-06 15:17:28
Writing application         : mkvmerge v27.0.0 ('Metropolis') 64-bit
Writing library             : libebml v1.3.6 + libmatroska v1.4.9
Attachments                 : 1

Video
ID                          : 1
Format                      : AVC
Format/Info                 : Advanced Video Codec
Format profile              : High@L4.1
Format settings             : CABAC / 12 Ref Frames
Format settings, CABAC      : Yes
Format settings, ReFrames   : 12 frames
Codec ID                    : V_MPEG4/ISO/AVC
Duration                    : 1 h 35 min
Bit rate                    : 3 297 kb/s
Width                       : 960 pixels
Height                      : 720 pixels
Display aspect ratio        : 4:3
Frame rate mode             : Constant
Frame rate                  : 23.976 (24000/1001) FPS
Color space                 : YUV
Chroma subsampling          : 4:2:0
Bit depth                   : 8 bits
Scan type                   : Progressive
Bits/(Pixel*Frame)          : 0.199
Stream size                 : 2.21 GiB (93%)
Writing library             : x264 core 152 r2851kMod ba24899
Encoding settings           : cabac=1 / ref=12 / deblock=1:-3:-3 / analyse=0x3:0x133 / me=umh / subme=11 / psy=1 / fade_compensate=0.00 / psy_rd=1.00:0.00 / mixed_ref=1 / me_range=64 / chroma_me=0 / trellis=2 / 8x8dct=1 / cqm=0 / deadzone=21,11 / fast_pskip=0 / chroma_qp_offset=-2 / threads=6 / lookahead_threads=1 / sliced_threads=0 / nr=0 / decimate=0 / interlaced=0 / bluray_compat=0 / constrained_intra=0 / bframes=9 / b_pyramid=2 / b_adapt=2 / b_bias=0 / direct=3 / weightb=1 / open_gop=0 / weightp=2 / keyint=250 / keyint_min=23 / scenecut=40 / intra_refresh=0 / rc=crf / mbtree=0 / crf=19.4000 / qcomp=0.60 / qpmin=0 / qpmax=69 / qpstep=4 / ip_ratio=1.40 / pb_ratio=1.30 / aq=3:0.90
Language                    : English
Default                     : Yes
Forced                      : No

Audio
ID                          : 2
Format                      : AAC LC
Format/Info                 : Advanced Audio Codec Low Complexity
Codec ID                    : A_AAC-2
Duration                    : 1 h 35 min
Bit rate                    : 239 kb/s
Channel(s)                  : 2 channels
Channel layout              : L R
Sampling rate               : 48.0 kHz
Frame rate                  : 46.875 FPS (1024 SPF)
Compression mode            : Lossy
Delay relative to video     : 9 ms
Stream size                 : 164 MiB (7%)
Language                    : English
Default                     : Yes
Forced                      : No

Text #1
ID                          : 3
Format                      : UTF-8
Codec ID                    : S_TEXT/UTF8
Codec ID/Info               : UTF-8 Plain Text
Duration                    : 1 h 33 min
Bit rate                    : 61 b/s
Count of elements           : 1006
Stream size                 : 42.5 KiB (0%)
Language                    : Spanish
Default                     : Yes
Forced                      : No

Text #2
ID                          : 4
Format                      : UTF-8
Codec ID                    : S_TEXT/UTF8
Codec ID/Info               : UTF-8 Plain Text
Duration                    : 1 h 33 min
Bit rate                    : 70 b/s
Count of elements           : 1515
Stream size                 : 48.6 KiB (0%)
Language                    : English
Default                     : No
Forced                      : No

Menu
00:00:00.000                : en:01. Room for Rent
00:05:49.349                : en:02. Fruit Juice
00:09:56.179                : en:03. The Birthday Party
00:17:54.073                : en:04. Disappointed Men
00:24:40.312                : en:05. Keeping Busy Is Keeping Happy
00:29:48.787                : en:06. Taboo
00:36:06.081                : en:07. Memories of Spring
00:41:03.795                : en:08. Mistakes
00:45:17.173                : en:09. A Good Dancer
00:48:53.848                : en:10. Watch Them
00:55:41.088                : en:11. Fighting Temptation
01:01:40.363                : en:12. Getting Ready for Company
01:06:27.483                : en:13. Bruce
01:14:12.365                : en:14. One More Drink
01:22:53.677                : en:15. City Hospital
01:28:31.097                : en:16. I Feel Better Already


---------------------------------Audio y subtitulos:---------------------------------------------


Del doblaje ni rastro. :sorpreson:

Para la sincro de los sub. he utilizado los compartidos en su Dvdx264 por Dardo :wink: .




CAPTURAS

Imagen
Imagen
Imagen
Imagen
Imagen
Imagen
Imagen
Imagen




Enlaces de descarga

Imagen


eD2K link 1952-Come.Back.Little.Sheba.WEBRip.720p.AAC[DMMD].mkv [2.37 Gb] 

jail
 
Mensajes: 5333
Registrado: 18 Oct 2012, 15:34
Agradecido : 5864 veces
Agradecimiento recibido: 1460 veces

Re: Come Back, Little Sheba (Daniel Mann, 1952) WEBRip 720 VOSE

Mensaje por jail » 06 Dic 2018, 21:07

Gracias a todos.

Avatar de Usuario
sete
 
Mensajes: 3384
Registrado: 22 Dic 2012, 16:10
Agradecido : 84 veces
Agradecimiento recibido: 829 veces

Re: Come Back, Little Sheba (Daniel Mann, 1952) WEBRip 720 VOSE

Mensaje por sete » 06 Dic 2018, 22:37

Gran aporte.
Muchas gracias, Dardo y DMMD.
:hi:
Este mundo está traicionando a la vida.
José Luis Sampedro

jorobado7
 
Mensajes: 1431
Registrado: 16 Oct 2012, 15:08
Agradecido : 282 veces
Agradecimiento recibido: 1435 veces

Re: Come Back, Little Sheba (Daniel Mann, 1952) WEBRip 720 VOSE

Mensaje por jorobado7 » 06 Dic 2018, 23:23

gracias por la mejora, DMMD.

Avatar de Usuario
gatatitania
 
Mensajes: 4002
Registrado: 16 Oct 2012, 18:27
Ubicación: Gatatitania es un gato hambriento, superviviente del planeta gatatitania...
Agradecido : 2178 veces
Agradecimiento recibido: 1008 veces

Re: Come Back, Little Sheba (Daniel Mann, 1952) WEBRip 720 VOSE

Mensaje por gatatitania » 07 Dic 2018, 00:58

¡Gracias, Dardo y DMMD! :aplauso: :aplauso: :aplauso:

Avatar de Usuario
tonapar1
 
Mensajes: 3412
Registrado: 16 Oct 2012, 20:19
Agradecido : 820 veces
Agradecimiento recibido: 816 veces

Re: Come Back, Little Sheba (Daniel Mann, 1952) WEBRip 720 VOSE

Mensaje por tonapar1 » 07 Dic 2018, 14:37

Muchas gracias por el ripeo a dardo y a dmmd. Un saludo.

ciberyago
 
Mensajes: 2074
Registrado: 20 Oct 2012, 07:26
Agradecimiento recibido: 262 veces

Re: Come Back, Little Sheba (Daniel Mann, 1952) WEBRip 720 VOSE

Mensaje por ciberyago » 08 Dic 2018, 06:27

Muchas gracias!

Responder

Volver a “Cine de Reestreno”