The Bachelor Party (Delbert Mann, 1957) VER ÍNDICE

Puntuación
7/10
2 votos

La noche de los maridos

Moderador: mifune

Responder
Avatar de Usuario
DCINE
 
Mensajes: 1233
Registrado: 30 Jul 2016, 20:09
Agradecido : 781 veces
Agradecimiento recibido: 1957 veces

Estados Unidos The Bachelor Party (Delbert Mann, 1957) SATRip Dual SE

Mensaje por DCINE » 28 Dic 2017, 11:05

Hilo anterior

La noche de los maridos (The Bachelor Party)
1957

Imagen

Imagen


DIRECTOR: Delbert Mann
PRODUCTORA: Hill-Hecht-Lancaster Productions / Norma Productions
GUIÓN: Paddy Chayefsky
MÚSICA: Paul Mertz
FOTOGRAFÍA: Joseph LaShelle



ARGUMENTO Cinco amigos se reúnen para celebrar la despedida de soltero de uno de ellos. La noche y el alcohol darán lugar a múltiples confidencias y reflexiones. (FILMAFFINITY) IMDB: http://www.imdb.com/title/tt0050156/

Doblaje Cines 1961: http://www.eldoblaje.com/datos/FichaPel ... p?id=11976

Reparto: Don Murray, E.G. Marshall, Jack Warden, Philip Abbott, Larry Blyden, Patricia Smith, Carolyn Jones, Nancy Marchand


Datos Técnicos:

[quote="Gorgin en exploradores"]
Montaje y sincronización propios, realizado con un SATRip de buena calidad, de procedencia desconocida (muchas gracias a quien corresponda) recodificado por mi mismo, para eliminar unas bandas negras superior e inferior, en el que sólo aparece esporádica y brevemente un logotipo del canal TCM, le hemos montado un audio castellano grabado del canal MGM, sincronizado para que cuadre bien con el video, ya está siendo compartido activamente en emule por exploradoresp2p.com.
[/quote]

[code]General:

General
Complete name : 1957 La noche de los maridos (The bachelor party) (Delbert Mann, 1957) SATRip Dual (Spa (Doblaje Cines 1961)-Eng) by Gorgin (Exploradoresp2p).avi
Format : AVI
Format/Info : Audio Video Interleave
File size : 1.25 GiB
Duration : 1h 33mn
Overall bit rate mode : Variable
Overall bit rate : 1 902 Kbps
Writing application : VirtualDubMod 1.5.10.2 (build 2540/release)
Writing library : VirtualDubMod build 2540/release

Video
ID : 0
Format : MPEG-4 Visual
Format settings, BVOP : Yes
Format settings, QPel : No
Format settings, GMC : No warppoints
Format settings, Matrix : Default (H.263)
Codec ID : DX50
Codec ID/Hint : DivX 5
Duration : 1h 33mn
Bit rate : 1 649 Kbps
Width : 704 pixels
Height : 426 pixels
Display aspect ratio : 1.653
Frame rate : 23.976 fps
Color space : YUV
Chroma subsampling : 4:2:0
Bit depth : 8 bits
Scan type : Progressive
Compression mode : Lossy
Bits/(Pixel*Frame) : 0.229
Stream size : 1.08 GiB (87%)
Writing library : DivX 6.8.5 (UTC 2009-08-20)

Audio #1
ID : 1
Format : MPEG Audio
Format version : Version 1
Format profile : Layer 3
Codec ID : 55
Codec ID/Hint : MP3
Duration : 1h 33mn
Bit rate mode : Constant
Bit rate : 128 Kbps
Channel(s) : 2 channels
Sampling rate : 48.0 KHz
Compression mode : Lossy
Stream size : 86.0 MiB (7%)
Alignment : Aligned on interleaves
Interleave, duration : 42 ms (1.00 video frame)
Interleave, preload duration : 504 ms
Writing library : LAME3.98r
Encoding settings : -m s -V 4 -q 3 -lowpass 17 -b 128

Audio #2
ID : 2
Format : MPEG Audio
Format version : Version 1
Format profile : Layer 3
Mode : Joint stereo
Mode extension : MS Stereo
Codec ID : 55
Codec ID/Hint : MP3
Duration : 1h 33mn
Bit rate mode : Variable
Bit rate : 108 Kbps
Channel(s) : 2 channels
Sampling rate : 48.0 KHz
Compression mode : Lossy
Stream size : 72.4 MiB (6%)
Alignment : Aligned on interleaves
Interleave, duration : 24 ms (0.58 video frame)
Interleave, preload duration : 487 ms
[/code]



Capturas:

ImagenImagen
ImagenImagen
ImagenImagen
ImagenImagen
ImagenImagen


Enlace: (Ripeo de Gorgin en Exploradoresp2p, muchas gracias)

eD2K link 1957 La noche de los maridos (The bachelor party) (Delbert Mann, 1957) SATRip Dua...oradoresp2p).avi [1.25 Gb] 

[quote="Prudencio"]Los subtítulos de Fifole sirven también para este ripeo.

https://www.subdivx.com/X6XNTE3NDcz
[/quote]

jail
 
Mensajes: 4563
Registrado: 18 Oct 2012, 15:34
Agradecido : 5066 veces
Agradecimiento recibido: 1079 veces

Re: The Bachelor Party (Delbert Mann, 1957) SATRip Dual

Mensaje por jail » 28 Dic 2017, 11:52

Gracias de nuevo, DCINE.

james mason
 
Mensajes: 869
Registrado: 03 Oct 2012, 11:31
Ubicación: En algún lugar de Extremadura
Agradecimiento recibido: 255 veces

Re: The Bachelor Party (Delbert Mann, 1957) SATRip Dual

Mensaje por james mason » 28 Dic 2017, 14:50

Muchas gracias, compañero! :hi:

Avatar de Usuario
sete
 
Mensajes: 2776
Registrado: 22 Dic 2012, 16:10
Agradecido : 16 veces
Agradecimiento recibido: 505 veces

Re: The Bachelor Party (Delbert Mann, 1957) SATRip Dual

Mensaje por sete » 28 Dic 2017, 22:58

Muchas gracias, DCINE y Gorgin.
:hi:
Este mundo está traicionando a la vida.
José Luis Sampedro

Avatar de Usuario
Prudencio
 
Mensajes: 3250
Registrado: 16 Oct 2012, 18:46
Agradecido : 3289 veces
Agradecimiento recibido: 905 veces

Re: The Bachelor Party (Delbert Mann, 1957) SATRip Dual

Mensaje por Prudencio » 28 Dic 2017, 23:46

Los subtítulos de Fifole sirven también para este ripeo.

https://www.subdivx.com/X6XNTE3NDcz
Muchas gracias, DCINE, Gorgin y Fifole. :hi:

Avatar de Usuario
tuscarola
 
Mensajes: 1666
Registrado: 25 Dic 2012, 20:38
Ubicación: En el Tarragonés
Agradecido : 499 veces
Agradecimiento recibido: 630 veces

Re: The Bachelor Party (Delbert Mann, 1957) SATRip Dual

Mensaje por tuscarola » 29 Dic 2017, 08:00

Muchas gracias DCINE y Gorgin. Y también por ese doblaje clásico en el que veo a Pedro Pablo Ayuso que para los que somos un "poco mayores" forma parte de nuestra memoria sonora de la época en que la radio era el mejor acompañante.
Imagen
Imagen
Imagen
Imagen
In Memoriam:
Juan Manuel Soriano
Carmen Lombarte
Maribel Casals
Felipe Peña
Alfonso Santigosa
Rafael Navarro

Avatar de Usuario
yojimbo
 
Mensajes: 7161
Registrado: 18 Oct 2012, 14:25
Agradecido : 6426 veces
Agradecimiento recibido: 1287 veces

Re: The Bachelor Party (Delbert Mann, 1957) SATRip Dual SE

Mensaje por yojimbo » 01 Ene 2018, 23:12

Muchas gracias, DCINE, Gorgin y fifole.

Responder

Volver a “Largos Clásicos”