[RES] Ceremonia sangrienta (Jorge Grau, 1973)

Moderador: mifune

Responder
Avatar de Usuario
Graveland
 
Mensajes: 3650
Registrado: 22 Nov 2012, 15:30
Agradecido : 2301 veces
Agradecimiento recibido: 3707 veces

[RES] Ceremonia sangrienta (Jorge Grau, 1973)

Mensaje por Graveland » 28 Ago 2018, 19:15

Hola a todos.

¿Alguien se anima a sincronizar el doblaje a esta copia (uncut version)?

https://www.imdb.com/title/tt0068352/?ref_=fn_al_tt_1
http://www.eldoblaje.com/datos/FichaPel ... p?id=11665

Capturas (VHSRip):
Imagen
Imagen
Imagen
Imagen
Imagen
:hi:

Avatar de Usuario
Graveland
 
Mensajes: 3650
Registrado: 22 Nov 2012, 15:30
Agradecido : 2301 veces
Agradecimiento recibido: 3707 veces

Re: [OFR] Ceremonia sangrienta (Jorge Grau, 1973)

Mensaje por Graveland » 24 Oct 2018, 18:57

La oferta sigue en pie. jejeje

Avatar de Usuario
Graveland
 
Mensajes: 3650
Registrado: 22 Nov 2012, 15:30
Agradecido : 2301 veces
Agradecimiento recibido: 3707 veces

Re: [OFR] Ceremonia sangrienta (Jorge Grau, 1973)

Mensaje por Graveland » 02 Nov 2018, 15:52

Tema resuelto.

Avatar de Usuario
mifune
 
Mensajes: 6791
Registrado: 02 Oct 2012, 20:48
Ubicación: Welcome to the Jungle
Agradecido : 10233 veces
Agradecimiento recibido: 9722 veces

Re: [OFR] Ceremonia sangrienta (Jorge Grau, 1973)

Mensaje por mifune » 07 Nov 2018, 00:24

Por si las moscas. La están emitiendo en 8Madrid. La he dejado grabando por si hiciera falta, desconozco que versión es. :hi:
"Una vez superada la barrera de los subtítulos, descubrirán películas maravillosas” Bong Joon-Ho

Avatar de Usuario
Graveland
 
Mensajes: 3650
Registrado: 22 Nov 2012, 15:30
Agradecido : 2301 veces
Agradecimiento recibido: 3707 veces

Re: [OFR] Ceremonia sangrienta (Jorge Grau, 1973)

Mensaje por Graveland » 09 Nov 2018, 18:08

mifune escribió:
07 Nov 2018, 00:24
Por si las moscas. La están emitiendo en 8Madrid. La he dejado grabando por si hiciera falta, desconozco que versión es. :hi:
¿Has tenido tiempo de comprobar de qué versión se trata, amigo?

Avatar de Usuario
DCINE
 
Mensajes: 1638
Registrado: 30 Jul 2016, 20:09
Agradecido : 886 veces
Agradecimiento recibido: 3282 veces

Re: [OFR] Ceremonia sangrienta (Jorge Grau, 1973)

Mensaje por DCINE » 09 Nov 2018, 20:13

Graveland escribió:
09 Nov 2018, 18:08
mifune escribió:
07 Nov 2018, 00:24
Por si las moscas. La están emitiendo en 8Madrid. La he dejado grabando por si hiciera falta, desconozco que versión es. :hi:
¿Has tenido tiempo de comprobar de qué versión se trata, amigo?
Creo que la copia de 8Madrid es la misma que emitieron hace tiempo en "Historia de Nuestro Cine", la versión española.

Unas capturas y mediainfo del ripeo que tengo de dicha emisión
Imagen Imagen

Imagen Imagen

Código: Seleccionar todo

General
Complete name                    : E:\2\1972 Ceremonia sangrienta (Le vergini cavalcanno la morte) (Jorge Grau, 1972) SATRip VE (Doblaje Cines 1973) RTVE by DCINE.mkv
Format                           : Matroska
Format version                   : Version 4 / Version 2
File size                        : 816 MiB
Duration                         : 1h 25mn
Overall bit rate                 : 1 341 Kbps
Movie name                       : 1972 Ceremonia sangrienta/Le vergini cavalcanno la morte (Jorge Grau, 1972) SATRip VE (Doblaje Cines 1973) RTVE by DCINE.mkv
Encoded date                     : UTC 2017-12-25T22:40:55Z
Writing application              : mkvmerge v7.1.0 ('Good Love') 32bit built on Jul 27 2014 12:59:18
Writing library                  : Lavf54.63.104

Video
ID                               : 1
Format                           : AVC
Format/Info                      : Advanced Video Codec
Format profile                   : High@L4.1
Format settings, CABAC           : Yes
Format settings, ReFrames        : 4 frames
Codec ID                         : V_MPEG4/ISO/AVC
Duration                         : 1h 25mn
Bit rate                         : 1 122 Kbps
Width                            : 672 pixels
Height                           : 570 pixels
Display aspect ratio             : 1.675
Original display aspect ratio    : 1.677
Frame rate mode                  : Variable
Frame rate                       : 25.000 fps
Color space                      : YUV
Chroma subsampling               : 4:2:0
Bit depth                        : 8 bits
Scan type                        : Progressive
Bits/(Pixel*Frame)               : 0.117
Stream size                      : 683 MiB (84%)
Writing library                  : x264 core 142 r2479 dd79a61
Encoding settings                : cabac=1 / ref=3 / deblock=1:0:0 / analyse=0x3:0x113 / me=hex / subme=7 / psy=1 / psy_rd=1.00:0.00 / mixed_ref=1 / me_range=16 / chroma_me=1 / trellis=1 / 8x8dct=1 / cqm=0 / deadzone=21,11 / fast_pskip=1 / chroma_qp_offset=-2 / threads=1 / lookahead_threads=1 / sliced_threads=0 / nr=0 / decimate=1 / interlaced=0 / bluray_compat=0 / constrained_intra=0 / bframes=3 / b_pyramid=2 / b_adapt=1 / b_bias=0 / direct=1 / weightb=1 / open_gop=0 / weightp=2 / keyint=250 / keyint_min=25 / scenecut=40 / intra_refresh=0 / rc_lookahead=40 / rc=crf / mbtree=1 / crf=20.0 / qcomp=0.60 / qpmin=0 / qpmax=69 / qpstep=4 / vbv_maxrate=62500 / vbv_bufsize=78125 / crf_max=0.0 / nal_hrd=none / filler=0 / ip_ratio=1.40 / aq=1:1.00
Default                          : Yes
Forced                           : No
DURATION                         : 01:25:03.120000000
NUMBER_OF_FRAMES                 : 127578
NUMBER_OF_BYTES                  : 731859327
_STATISTICS_WRITING_APP          : mkvmerge v7.1.0 ('Good Love') 32bit built on Jul 27 2014 12:59:18
_STATISTICS_WRITING_DATE_UTC     : 2017-12-26 07:18:20
_STATISTICS_TAGS                 : BPS DURATION NUMBER_OF_FRAMES NUMBER_OF_BYTES
Color primaries                  : BT.470-6 System B, BT.470-6 System G, BT.601-6 625, BT.1358 625, BT.1700 625 PAL, BT.1700 625 SECAM
Transfer characteristics         : BT.709-5, BT.1361
Matrix coefficients              : BT.601-6 525, BT.1358 525, BT.1700 NTSC, SMPTE 170M

Audio
ID                               : 2
Format                           : MPEG Audio
Format version                   : Version 1
Format profile                   : Layer 2
Codec ID                         : A_MPEG/L2
Codec ID/Hint                    : MP2
Duration                         : 1h 25mn
Bit rate mode                    : Constant
Bit rate                         : 192 Kbps
Channel(s)                       : 2 channels
Sampling rate                    : 48.0 KHz
Compression mode                 : Lossy
Delay relative to video          : -74ms
Stream size                      : 117 MiB (14%)
Language                         : Spanish
Default                          : Yes
Forced                           : No
DURATION                         : 01:25:03.240000000
NUMBER_OF_FRAMES                 : 212635
NUMBER_OF_BYTES                  : 122477760
_STATISTICS_WRITING_APP          : mkvmerge v7.1.0 ('Good Love') 32bit built on Jul 27 2014 12:59:18
_STATISTICS_WRITING_DATE_UTC     : 2017-12-26 07:18:20
_STATISTICS_TAGS                 : BPS DURATION NUMBER_OF_FRAMES NUMBER_OF_BYTES


Avatar de Usuario
Graveland
 
Mensajes: 3650
Registrado: 22 Nov 2012, 15:30
Agradecido : 2301 veces
Agradecimiento recibido: 3707 veces

Re: [OFR] Ceremonia sangrienta (Jorge Grau, 1973)

Mensaje por Graveland » 09 Nov 2018, 20:35

DCINE escribió:
09 Nov 2018, 20:13
Graveland escribió:
09 Nov 2018, 18:08
mifune escribió:
07 Nov 2018, 00:24
Por si las moscas. La están emitiendo en 8Madrid. La he dejado grabando por si hiciera falta, desconozco que versión es. :hi:
¿Has tenido tiempo de comprobar de qué versión se trata, amigo?
Creo que la copia de 8Madrid es la misma que emitieron hace tiempo en "Historia de Nuestro Cine", la versión española.

Unas capturas y mediainfo del ripeo que tengo de dicha emisión
Imagen Imagen

Imagen Imagen

Código: Seleccionar todo

General
Complete name                    : E:\2\1972 Ceremonia sangrienta (Le vergini cavalcanno la morte) (Jorge Grau, 1972) SATRip VE (Doblaje Cines 1973) RTVE by DCINE.mkv
Format                           : Matroska
Format version                   : Version 4 / Version 2
File size                        : 816 MiB
Duration                         : 1h 25mn
Overall bit rate                 : 1 341 Kbps
Movie name                       : 1972 Ceremonia sangrienta/Le vergini cavalcanno la morte (Jorge Grau, 1972) SATRip VE (Doblaje Cines 1973) RTVE by DCINE.mkv
Encoded date                     : UTC 2017-12-25T22:40:55Z
Writing application              : mkvmerge v7.1.0 ('Good Love') 32bit built on Jul 27 2014 12:59:18
Writing library                  : Lavf54.63.104

Video
ID                               : 1
Format                           : AVC
Format/Info                      : Advanced Video Codec
Format profile                   : High@L4.1
Format settings, CABAC           : Yes
Format settings, ReFrames        : 4 frames
Codec ID                         : V_MPEG4/ISO/AVC
Duration                         : 1h 25mn
Bit rate                         : 1 122 Kbps
Width                            : 672 pixels
Height                           : 570 pixels
Display aspect ratio             : 1.675
Original display aspect ratio    : 1.677
Frame rate mode                  : Variable
Frame rate                       : 25.000 fps
Color space                      : YUV
Chroma subsampling               : 4:2:0
Bit depth                        : 8 bits
Scan type                        : Progressive
Bits/(Pixel*Frame)               : 0.117
Stream size                      : 683 MiB (84%)
Writing library                  : x264 core 142 r2479 dd79a61
Encoding settings                : cabac=1 / ref=3 / deblock=1:0:0 / analyse=0x3:0x113 / me=hex / subme=7 / psy=1 / psy_rd=1.00:0.00 / mixed_ref=1 / me_range=16 / chroma_me=1 / trellis=1 / 8x8dct=1 / cqm=0 / deadzone=21,11 / fast_pskip=1 / chroma_qp_offset=-2 / threads=1 / lookahead_threads=1 / sliced_threads=0 / nr=0 / decimate=1 / interlaced=0 / bluray_compat=0 / constrained_intra=0 / bframes=3 / b_pyramid=2 / b_adapt=1 / b_bias=0 / direct=1 / weightb=1 / open_gop=0 / weightp=2 / keyint=250 / keyint_min=25 / scenecut=40 / intra_refresh=0 / rc_lookahead=40 / rc=crf / mbtree=1 / crf=20.0 / qcomp=0.60 / qpmin=0 / qpmax=69 / qpstep=4 / vbv_maxrate=62500 / vbv_bufsize=78125 / crf_max=0.0 / nal_hrd=none / filler=0 / ip_ratio=1.40 / aq=1:1.00
Default                          : Yes
Forced                           : No
DURATION                         : 01:25:03.120000000
NUMBER_OF_FRAMES                 : 127578
NUMBER_OF_BYTES                  : 731859327
_STATISTICS_WRITING_APP          : mkvmerge v7.1.0 ('Good Love') 32bit built on Jul 27 2014 12:59:18
_STATISTICS_WRITING_DATE_UTC     : 2017-12-26 07:18:20
_STATISTICS_TAGS                 : BPS DURATION NUMBER_OF_FRAMES NUMBER_OF_BYTES
Color primaries                  : BT.470-6 System B, BT.470-6 System G, BT.601-6 625, BT.1358 625, BT.1700 625 PAL, BT.1700 625 SECAM
Transfer characteristics         : BT.709-5, BT.1361
Matrix coefficients              : BT.601-6 525, BT.1358 525, BT.1700 NTSC, SMPTE 170M

Audio
ID                               : 2
Format                           : MPEG Audio
Format version                   : Version 1
Format profile                   : Layer 2
Codec ID                         : A_MPEG/L2
Codec ID/Hint                    : MP2
Duration                         : 1h 25mn
Bit rate mode                    : Constant
Bit rate                         : 192 Kbps
Channel(s)                       : 2 channels
Sampling rate                    : 48.0 KHz
Compression mode                 : Lossy
Delay relative to video          : -74ms
Stream size                      : 117 MiB (14%)
Language                         : Spanish
Default                          : Yes
Forced                           : No
DURATION                         : 01:25:03.240000000
NUMBER_OF_FRAMES                 : 212635
NUMBER_OF_BYTES                  : 122477760
_STATISTICS_WRITING_APP          : mkvmerge v7.1.0 ('Good Love') 32bit built on Jul 27 2014 12:59:18
_STATISTICS_WRITING_DATE_UTC     : 2017-12-26 07:18:20
_STATISTICS_TAGS                 : BPS DURATION NUMBER_OF_FRAMES NUMBER_OF_BYTES

Oye, colega, pues la verdad es que se ve de puta madre. ¿Te consta si está censurada? ¿Y por qué no te anima a publicarla? ¡Gracias!

Avatar de Usuario
mifune
 
Mensajes: 6791
Registrado: 02 Oct 2012, 20:48
Ubicación: Welcome to the Jungle
Agradecido : 10233 veces
Agradecimiento recibido: 9722 veces

Re: [RES] Ceremonia sangrienta (Jorge Grau, 1973)

Mensaje por mifune » 09 Nov 2018, 21:18

Pues siendo copia de Cerezo, la versión será la misma que la de 8 Madrid, con el añadido del logo, el de la 2 es menos intrusivo y menos molesto por lo tanto.

:hi:
"Una vez superada la barrera de los subtítulos, descubrirán películas maravillosas” Bong Joon-Ho

Avatar de Usuario
Graveland
 
Mensajes: 3650
Registrado: 22 Nov 2012, 15:30
Agradecido : 2301 veces
Agradecimiento recibido: 3707 veces

Re: [RES] Ceremonia sangrienta (Jorge Grau, 1973)

Mensaje por Graveland » 10 Nov 2018, 19:06

Seguramente la copia emitida por TVE esté censurada. :pse:

No obstante, sigo muy interesado en hacerme con ella (y muchos en este bendito foro). :drinks:

Avatar de Usuario
Graveland
 
Mensajes: 3650
Registrado: 22 Nov 2012, 15:30
Agradecido : 2301 veces
Agradecimiento recibido: 3707 veces

Re: [RES] Ceremonia sangrienta (Jorge Grau, 1973)

Mensaje por Graveland » 26 Mar 2020, 18:55

El amigo carnicerito me ha enviado este aviso: "Este viernes ponen la peli de Grau en Historia de nuestro cine".

Confío en que alguien la capture y la publique aquí.

Gracias de antemano.

Responder

Volver a “[RES]ueltas”