The Eagle (Clarence Brown, 1925) DVDrip VO

Puntuación
Sin
puntuar

El Aguila Negra

El maravilloso mundo del cine silente.
Hasta 1936 inclusive (<= 1936)

Moderador: Monsieur Lange

Responder
montagut
 
Mensajes: 270
Registrado: 04 Mar 2013, 23:16
Agradecido : 96 veces
Agradecimiento recibido: 929 veces

Estados Unidos The Eagle (Clarence Brown, 1925) DVDrip VO

Mensaje por montagut » 24 Dic 2014, 18:20

THE EAGLE

Imagen

IMDB

Título original:The Eagle
Título en España: El Aguila Negra
Director:Clarence Brown
Año: 1925
País: EEUU
Guión: Hanns Kräly (Historia: Alexander Pushkin)
Producción: Art Finance Corporation
Intérpretes: Rodolfo Valentino, Vilma Banky, Louise Dresser, Albert Conti, James Marcus, George Nichols, Carrie Clarke Ward, Gustav von Seyffertitz, Gary Cooper
Duración: 90 min.

Argumento: Cuando Vladimir Dubrovsky rehúsa convertirse en amante de la zarina Catalina II, ésta, herida en su orgullo, lo acusa de ser un criminal y ordena que lo capturen vivo o muerto. Las propiedades de la familia Dubrovsky son inmediatamente confiscadas y entregadas a Kyrilla Troekouroff, un hombre cruel que provoca la muerte del padre de Vladimir. Cuando éste se entera, jura vengarse y, para ello, se oculta tras un antifaz negro y actúa con el apodo de Águila Negra. Para ejecutar su venganza, se disfraza de preceptor y entra en la casa de Troekouroff como profesor de francés de Mascha, la hija de su enemigo. Pero sus planes se tambalean cuando empieza a enamorarse de la joven. (FILMAFFINITY)

ImagenImagen
ImagenImagen
ImagenImagen

Datos Técnicos:
Spoiler:
General
Format : AVI
Format/Info : Audio Video Interleave
File size : 1.24 GiB
Duration : 1h 30mn
Overall bit rate mode : Variable
Overall bit rate : 1 962 Kbps

Video
ID : 0
Format : MPEG-4 Visual
Format profile : Advanced Simple@L4
Format settings, BVOP : 2
Format settings, QPel : No
Format settings, GMC : No warppoints
Format settings, Matrix : Default (H.263)
Codec ID : DIVX
Codec ID/Info : Project Mayo
Codec ID/Hint : DivX 4
Duration : 1h 30mn
Bit rate : 1 856 Kbps
Width : 720 pixels
Height : 534 pixels
Display aspect ratio : 4:3
Frame rate : 29.970 fps
Color space : YUV
Chroma subsampling : 4:2:0
Bit depth : 8 bits
Scan type : Progressive
Compression mode : Lossy
Bits/(Pixel*Frame) : 0.161
Stream size : 1.17 GiB (95%)
Writing library : XviD 64

Audio
ID : 1
Format : MPEG Audio
Format version : Version 1
Format profile : Layer 3
Codec ID : 55
Codec ID/Hint : MP3
Duration : 1h 4mn
Source duration : 1h 26mn
Bit rate mode : Variable
Bit rate : 96.0 Kbps
Channel(s) : 2 channels
Sampling rate : 48.0 KHz
Compression mode : Lossy
Stream size : 59.6 MiB (5%)
Alignment : Aligned on interleaves
Interleave, duration : 24 ms (0.72 video frame)

:flecha: eD2K link The Eagle - 1925 -Rudolph Valentino.avi [1.24 Gb] 

Nota: tambien circula desde hace tiempo un VHSrip en español: eD2K link El Aguila Negra - [Muda-SE] (Rodolfo Valentino-1925) [VHSrip].avi [719.54 Mb] 

Avatar de Usuario
boettcher
 
Mensajes: 1500
Registrado: 17 Oct 2012, 12:01
Agradecido : 905 veces
Agradecimiento recibido: 239 veces

Re: The Eagle (Clarence Brown, 1925) DVDrip VO

Mensaje por boettcher » 24 Dic 2014, 18:54

Muchas gracias, montagut :)

busterkitton
 
Mensajes: 172
Registrado: 17 Oct 2012, 13:45
Agradecido : 84 veces
Agradecimiento recibido: 19 veces

Re: The Eagle (Clarence Brown, 1925) DVDrip VO

Mensaje por busterkitton » 24 Dic 2014, 19:24

Muy buena película de los años tempranos de Brown, apenas un peldaño por debajo de A Woman of Affairs y Flesh and the Devil, que para mi son sus mejores películas de esa época (y de cualquier otra). Gracias!

jail
 
Mensajes: 4857
Registrado: 18 Oct 2012, 15:34
Agradecido : 5363 veces
Agradecimiento recibido: 1218 veces

Re: The Eagle (Clarence Brown, 1925) DVDrip VO

Mensaje por jail » 24 Dic 2014, 21:19

boettcher escribió:Muchas gracias, montagut :)

Avatar de Usuario
yojimbo
 
Mensajes: 7442
Registrado: 18 Oct 2012, 14:25
Agradecido : 6881 veces
Agradecimiento recibido: 1422 veces

Re: The Eagle (Clarence Brown, 1925) DVDrip VO

Mensaje por yojimbo » 26 Dic 2014, 12:35

Muchas gracias, montagut.

Avatar de Usuario
tonapar1
 
Mensajes: 3025
Registrado: 16 Oct 2012, 20:19
Agradecido : 676 veces
Agradecimiento recibido: 607 veces

Re: The Eagle (Clarence Brown, 1925) DVDrip VO

Mensaje por tonapar1 » 02 Ene 2018, 06:52

Muchas gracias por el ripeo a montagut. Un saludo.

Responder

Volver a “Cine Mudo”