Cine silente (a.k.a. mudo) on-line

Puntuación
Sin
puntuar
El maravilloso mundo del cine silente.
Hasta 1936 inclusive (<= 1936)

Moderador: Monsieur Lange

Responder
Avatar de Usuario
Eddie Constanti
 
Mensajes: 5701
Registrado: 05 Ago 2013, 21:31
Ubicación: Vallès Oriental
Agradecido : 300 veces
Agradecimiento recibido: 3379 veces

Re: Cine silente (a.k.a. mudo) on-line

Mensaje por Eddie Constanti » 26 Nov 2020, 11:36

https://vimeo.com/filmmuseummuenchen

Geschlecht in fesseln

Una hora y 47 minutos. Ya la tenemos, pero habrá que ver cómo está la copia.

historieta
 
Mensajes: 212
Registrado: 17 Oct 2012, 13:44
Agradecido : 42 veces
Agradecimiento recibido: 153 veces

Re: Cine silente (a.k.a. mudo) on-line

Mensaje por historieta » 26 Nov 2020, 18:18

Se ve bien, pero no está en HD (360 pixels de altura) :(

Avatar de Usuario
Caolin
 
Mensajes: 177
Registrado: 02 Jul 2015, 12:54
Ubicación: Al poniente, mirando a Gredos.
Agradecido : 1628 veces
Agradecimiento recibido: 175 veces

Re: Cine silente (a.k.a. mudo) on-line

Mensaje por Caolin » 26 Nov 2020, 18:57

Eddie Constanti escribió:
26 Nov 2020, 11:36
https://vimeo.com/filmmuseummuenchen

Geschlecht in fesseln

Una hora y 47 minutos. Ya la tenemos, pero habrá que ver cómo está la copia.
Información de Medianinfo

General
Complete name : /home/arupa/Vídeos/Filmmuseum München-1.mp4
Format : MPEG-4
Format profile : Base Media
Codec ID : isom (isom/iso2/avc1/mp41)
File size : 4.13 GiB
Duration : 1 h 47 min
Overall bit rate : 5 496 kb/s
Writing application : Lavf58.16.100

Video
ID : 1
Format : AVC
Format/Info : Advanced Video Codec
Format profile : High@L4
Format settings : CABAC / 5 Ref Frames
Format settings, CABAC : Yes
Format settings, ReFrames : 5 frames
Codec ID : avc1
Codec ID/Info : Advanced Video Coding
Duration : 1 h 47 min
Bit rate : 5 236 kb/s
Width : 1 920 pixels
Height : 1 080 pixels
Display aspect ratio : 16:9
Frame rate mode : Variable
Frame rate : 25.000 FPS
Minimum frame rate : 8.333 FPS
Maximum frame rate : 12 800.000 FPS
Color space : YUV
Chroma subsampling : 4:2:0
Bit depth : 8 bits
Scan type : Progressive
Bits/(Pixel*Frame) : 0.101
Stream size : 3.94 GiB (95%)
Writing library : x264 core 161 r10 4121277
Encoding settings : cabac=1 / ref=5 / deblock=1:0:0 / analyse=0x3:0x113 / me=hex / subme=8 / psy=1 / psy_rd=1.00:0.00 / mixed_ref=1 / me_range=16 / chroma_me=1 / trellis=2 / 8x8dct=1 / cqm=0 / deadzone=21,11 / fast_pskip=1 / chroma_qp_offset=-2 / threads=34 / lookahead_threads=5 / sliced_threads=0 / nr=0 / decimate=1 / interlaced=0 / bluray_compat=0 / stitchable=1 / constrained_intra=0 / bframes=3 / b_pyramid=2 / b_adapt=2 / b_bias=0 / direct=3 / weightb=1 / open_gop=0 / weightp=2 / keyint=infinite / keyint_min=25 / scenecut=40 / intra_refresh=0 / rc_lookahead=50 / rc=crf / mbtree=1 / crf=20.0 / qcomp=0.60 / qpmin=5 / qpmax=69 / qpstep=4 / vbv_maxrate=5500 / vbv_bufsize=15000 / crf_max=0.0 / nal_hrd=none / filler=0 / ip_ratio=1.40 / aq=1:1.00
Color range : Limited
Color primaries : BT.709
Transfer characteristics : BT.709
Matrix coefficients : BT.709
Codec configuration box : avcC

Audio
ID : 2
Format : AAC LC
Format/Info : Advanced Audio Codec Low Complexity
Codec ID : mp4a-40-2
Duration : 1 h 47 min
Bit rate mode : Constant
Bit rate : 253 kb/s
Channel(s) : 2 channels
Channel layout : L R
Sampling rate : 48.0 kHz
Frame rate : 46.875 FPS (1024 SPF)
Compression mode : Lossy
Stream size : 195 MiB (5%)
Default : Yes
Alternate group : 1

rdeespana
 
Mensajes: 766
Registrado: 06 Dic 2012, 03:30
Agradecido : 3212 veces
Agradecimiento recibido: 503 veces

Re: Cine silente (a.k.a. mudo) on-line

Mensaje por rdeespana » 26 Nov 2020, 21:35

Eddie Constanti escribió:
26 Nov 2020, 11:36
https://vimeo.com/filmmuseummuenchen

Geschlecht in fesseln

Una hora y 47 minutos. Ya la tenemos, pero habrá que ver cómo está la copia.

Como enlace me ha sido más útil este:
https://vimeo.com/483627357
Parece que es una "re-restauración" digital de 2020...; me parece recordar que la copia que circulaba hasta ahora tenía los letreros en inglés...

Avatar de Usuario
Caolin
 
Mensajes: 177
Registrado: 02 Jul 2015, 12:54
Ubicación: Al poniente, mirando a Gredos.
Agradecido : 1628 veces
Agradecimiento recibido: 175 veces

Re: Cine silente (a.k.a. mudo) on-line

Mensaje por Caolin » 26 Nov 2020, 22:23

rdeespana escribió:
26 Nov 2020, 21:35
Eddie Constanti escribió:
26 Nov 2020, 11:36
https://vimeo.com/filmmuseummuenchen

Geschlecht in fesseln

Una hora y 47 minutos. Ya la tenemos, pero habrá que ver cómo está la copia.

Como enlace me ha sido más útil este:
https://vimeo.com/483627357
Parece que es una "re-restauración" digital de 2020...; me parece recordar que la copia que circulaba hasta ahora tenía los letreros en inglés...
Yo tengo desde el 2015 un DVDRip.xvid (420x320) 1:31:1 30 FPS con letreros en alemán y subtítulos en castellano que con unos pequeños ajustes valen para esta copia de mas calidad.

Creo que es la publicada por moz34 en divxclasico con subtítulos de canaguayo corregidos por marlowe62.

rdeespana
 
Mensajes: 766
Registrado: 06 Dic 2012, 03:30
Agradecido : 3212 veces
Agradecimiento recibido: 503 veces

Re: Cine silente (a.k.a. mudo) on-line

Mensaje por rdeespana » 27 Nov 2020, 11:41

Caolin escribió:
26 Nov 2020, 22:23
rdeespana escribió:
26 Nov 2020, 21:35
Eddie Constanti escribió:
26 Nov 2020, 11:36
https://vimeo.com/filmmuseummuenchen

Geschlecht in fesseln

Una hora y 47 minutos. Ya la tenemos, pero habrá que ver cómo está la copia.

Como enlace me ha sido más útil este:
https://vimeo.com/483627357
Parece que es una "re-restauración" digital de 2020...; me parece recordar que la copia que circulaba hasta ahora tenía los letreros en inglés...
Yo tengo desde el 2015 un DVDRip.xvid (420x320) 1:31:1 30 FPS con letreros en alemán y subtítulos en castellano que con unos pequeños ajustes valen para esta copia de mas calidad.

Creo que es la publicada por moz34 en divxclasico con subtítulos de canaguayo corregidos por marlowe62.

Es la misma que tengo yo, la edición de Kino con el título Sex in Chains. He comprobado que los letreros se mantuvieron en alemán aunque no sé si con subtítulos o versión alternativa en inglés.
Por lo que he visto, la copia actual del Filmmuseum parece la misma en cuanto a duración y montaje, aunque con una mejor definición de imagen.

Avatar de Usuario
klevi66
 
Mensajes: 926
Registrado: 12 Nov 2012, 07:27
Ubicación: Siebenburgen(Romania)
Agradecido : 210 veces
Agradecimiento recibido: 214 veces

Re: Cine silente (a.k.a. mudo) on-line

Mensaje por klevi66 » 28 Nov 2020, 08:55

Dos daneses :

Hendes Ære (August Blom, 1911)

https://vimeo.com/484215418

Kærlighed og Overtro (Lau Lauritzen, 1920)

https://vimeo.com/484209313

Angeluco
 
Mensajes: 1787
Registrado: 25 Nov 2012, 12:41
Agradecido : 2475 veces
Agradecimiento recibido: 923 veces

Re: Cine silente (a.k.a. mudo) on-line

Mensaje por Angeluco » 28 Nov 2020, 12:37

klevi66 escribió:
28 Nov 2020, 08:55
Dos daneses :

Hendes Ære (August Blom, 1911)

https://vimeo.com/484215418

Kærlighed og Overtro (Lau Lauritzen, 1920)

https://vimeo.com/484209313
Muchas gracias,Klevi.

Avatar de Usuario
Eddie Constanti
 
Mensajes: 5701
Registrado: 05 Ago 2013, 21:31
Ubicación: Vallès Oriental
Agradecido : 300 veces
Agradecimiento recibido: 3379 veces

Re: Cine silente (a.k.a. mudo) on-line

Mensaje por Eddie Constanti » 28 Nov 2020, 13:05

Gracias, klevi. Yo no las tengo en la web danesa. ¿De dónde las has sacado tú?

Avatar de Usuario
klevi66
 
Mensajes: 926
Registrado: 12 Nov 2012, 07:27
Ubicación: Siebenburgen(Romania)
Agradecido : 210 veces
Agradecimiento recibido: 214 veces

Re: Cine silente (a.k.a. mudo) on-line

Mensaje por klevi66 » 28 Nov 2020, 14:05

Eddie Constanti escribió:
28 Nov 2020, 13:05
Gracias, klevi. Yo no las tengo en la web danesa. ¿De dónde las has sacado tú?
De aqui :

https://vimeo.com/detdanskefilminstitut

Son otras no enlistadas ahi.

Responder

Volver a “Cine Mudo”