Zhizn za zhizn (Yevgeni Bauer, 1916) VER ÍNDICE

Puntuación
5/10
1 voto

A Life for a Life

El maravilloso mundo del cine silente.
Hasta 1936 inclusive (<= 1936)

Moderador: Monsieur Lange

Responder
Avatar de Usuario
yojimbo
 
Mensajes: 7442
Registrado: 18 Oct 2012, 14:25
Agradecido : 6881 veces
Agradecimiento recibido: 1422 veces

Re: Zhizn za zhizn (Yevgeni Bauer, 1916) VHSRip VOSE

Mensaje por yojimbo » 28 Jul 2014, 19:15

Me apunto. Muchas gracias, PREACHER, Mabuse y Justiniano Conquián.

Saludos.

Danyyyy
 
Mensajes: 1285
Registrado: 27 Ene 2015, 18:14
Agradecido : 632 veces
Agradecimiento recibido: 390 veces

Re: Zhizn za zhizn (Yevgeni Bauer, 1916) VHSRip VOSE

Mensaje por Danyyyy » 22 Mar 2017, 12:07

En Karagarga observo que hay una copia con una duración de 68 minutos.

Avatar de Usuario
fifole
 
Mensajes: 3454
Registrado: 17 Oct 2012, 20:47
Agradecido : 5437 veces
Agradecimiento recibido: 8285 veces

Rusia Zhizn za zhizn (Yevgeni Bauer, 1916) DVDRIP VOSI+SE

Mensaje por fifole » 27 Nov 2017, 21:57

ZHIZN ZA ZHIZN
(UNA VIDA POR OTRA)
(1916)


Imagen

IMDb


Producción
Khanzhonkov

Director
Yevgeni Bauer

Guión
Yevgeni Bauer

Argumento
La novela de
Georges Ohnet

Intérpretes
Vera Kholodnaya
Lydia Koreneva
Ivane Perestiani
Olga Rakhmanova


Melodrama muy tenso sobre dos hijas de la señora rica Khromova (una natural, la otra adoptada) y sus amores con el apuesto, pero irresponsable Bartinsky príncipe. (FILMAFFINITY)

Ripeo descargado de Patio de Butacas (el film de Bauer estaba contenido dentro del archivo "Early Russian Cinema, Vol. 9: High Society"). He sincronizado los subtítulos de Dr Mabuse a este DVDRip.


Imagen

Esta atractiva historia de adulterio y parejas entrelazadas, es desarrollada brillantemente por Herr Bauer, el cual disecciona de forma elaborada, los conflictos sentimentales y de intereses reflejados en el filme, evitando la confusión gracias a un hábil montaje, sibilinos movimientos de cámara y el uso de medios y planos cortos, destacados efectos técnicos éstos para una obra tan temprana silente, ja wohl!

Como suele suceder en los filmes de Herr Bauer, la dirección artística brilla especialmente, adaptándose en la misma sus diferentes personajes, poderosos personajes ubicados en un vertiginoso mar de sentimientos contradictorios en donde el drama está al acecho de forma continua, muy bien interpretados éstos por los actores del filme, en donde los personajes femeninos suelen ser siempre los más fuertes, libres, liberales y dueños de sus propias decisiones, siendo los personajes masculinos los más débiles y los que al final pagarán todas y cada una de la terribles consecuencias.
Ferdinand Von Galitzien


Imagen


Datos técnicos:

Código: Seleccionar todo

General
Complete name               : Zhizn za zhizn (Yevgeni Bauer, 1916) DVDRip.avi
Format                      : AVI
Format/Info                 : Audio Video Interleave
File size                   : 646 MiB
Duration                    : 1 h 7 min
Overall bit rate            : 1 342 kb/s
Writing application         : VirtualDubMod 1.5.4.1 (build 2178/release)
Writing library             : VirtualDubMod build 2178/release

Video
ID                          : 0
Format                      : MPEG-4 Visual
Format profile              : Advanced Simple@L4
Format settings, BVOP       : No
Format settings, QPel       : No
Format settings, GMC        : No warppoints
Format settings, Matrix     : Default (H.263)
Codec ID                    : XVID
Codec ID/Hint               : XviD
Duration                    : 1 h 7 min
Bit rate                    : 1 201 kb/s
Width                       : 640 pixels
Height                      : 480 pixels
Display aspect ratio        : 4:3
Frame rate                  : 29.970 (30000/1001) FPS
Color space                 : YUV
Chroma subsampling          : 4:2:0
Bit depth                   : 8 bits
Scan type                   : Progressive
Compression mode            : Lossy
Bits/(Pixel*Frame)          : 0.130
Stream size                 : 578 MiB (89%)
Writing library             : Magic0432

Audio
ID                          : 1
Format                      : MPEG Audio
Format version              : Version 1
Format profile              : Layer 3
Mode                        : Joint stereo
Mode extension              : MS Stereo
Codec ID                    : 55
Codec ID/Hint               : MP3
Duration                    : 1 h 7 min
Bit rate mode               : Constant
Bit rate                    : 128 kb/s
Channel(s)                  : 2 channels
Sampling rate               : 44.1 kHz
Compression mode            : Lossy
Stream size                 : 61.6 MiB (10%)
Alignment                   : Aligned on interleaves
Interleave, duration        : 26  ms (0.78 video frame)
Interleave, preload duratio : 522  ms


Imagen
Imagen
Imagen
Imagen
Imagen


eD2K link Zhizn za zhizn (Yevgeni Bauer, 1916) DVDRip.avi [645.65 Mb] 

Subtítulos en español:
https://www.subdivx.com/X6XNTIwMjk0

https://mega.nz/#!lr4QRAqa!WiD9wGdnQP0s ... 69htmy8V2A

eD2K link Zhizn za zhizn (Yevgeni Bauer, 1916) DVDRip.srt [9.4 Kb] 

Avatar de Usuario
yojimbo
 
Mensajes: 7442
Registrado: 18 Oct 2012, 14:25
Agradecido : 6881 veces
Agradecimiento recibido: 1422 veces

Re: Zhizn za zhizn (Yevgeni Bauer, 1916) DVDRIP VOSI+SE

Mensaje por yojimbo » 27 Nov 2017, 22:19

Muchas gracias, fifole y Dr Mabuse.

Avatar de Usuario
filmoteca
 
Mensajes: 53
Registrado: 03 Nov 2012, 02:14
Agradecido : 499 veces
Agradecimiento recibido: 20 veces

Re: Zhizn za zhizn (Yevgeni Bauer, 1916) DVDRIP VOSI+SE

Mensaje por filmoteca » 28 Nov 2017, 00:10

Los subtítulos no salen bien, afirma que el archivo no se encuentra.
Gracias fifole y Dr.Mabuse.

xeneise007
 
Mensajes: 760
Registrado: 08 Ene 2013, 12:19
Ubicación: Reino de Aragón
Agradecido : 910 veces
Agradecimiento recibido: 181 veces

Re: Zhizn za zhizn (Yevgeni Bauer, 1916) DVDRIP VOSI+SE

Mensaje por xeneise007 » 28 Nov 2017, 06:01

Gracias Fifole, pinchada :up:
Los subtitulos a mi tampoco me los deja abrir :fisch:

jail
 
Mensajes: 4857
Registrado: 18 Oct 2012, 15:34
Agradecido : 5363 veces
Agradecimiento recibido: 1217 veces

Re: Zhizn za zhizn (Yevgeni Bauer, 1916) DVDRIP VOSI+SE

Mensaje por jail » 28 Nov 2017, 08:33

Gracias, fifole y Dr Mabuse.
Formato desconocido de los subtítulos.

Avatar de Usuario
fifole
 
Mensajes: 3454
Registrado: 17 Oct 2012, 20:47
Agradecido : 5437 veces
Agradecimiento recibido: 8285 veces

Re: Zhizn za zhizn (Yevgeni Bauer, 1916) DVDRIP VOSI+SE

Mensaje por fifole » 28 Nov 2017, 08:59

Vamos a hacer las oportunas pesquisas.

En todo caso luego los pongo a compartir por otros cauces...

:hi:

Danyyyy
 
Mensajes: 1285
Registrado: 27 Ene 2015, 18:14
Agradecido : 632 veces
Agradecimiento recibido: 390 veces

Re: Zhizn za zhizn (Yevgeni Bauer, 1916) DVDRIP VOSI+SE

Mensaje por Danyyyy » 28 Nov 2017, 09:11

fifole escribió:Vamos a hacer las oportunas pesquisas.

En todo caso luego los pongo a compartir por otros cauces...

:hi:
Yo tampoco puedo extraerlos (tampoco pude con los de White Tiger, los obtuve finalmente cuando se puso enlace vía emule). He usado WinRAR para intentar extraerlos, y el error que me da es el siguiente: El archivo tiene un formato desconocido o está dañado (lo comento por si sirviera a la hora de detectar el problema).

Avatar de Usuario
sete
 
Mensajes: 3007
Registrado: 22 Dic 2012, 16:10
Agradecido : 36 veces
Agradecimiento recibido: 619 veces

Re: Zhizn za zhizn (Yevgeni Bauer, 1916) DVDRIP VOSI+SE

Mensaje por sete » 28 Nov 2017, 15:50

Muchas gracias, fifole y Dr Mabuse.
:hi:
Este mundo está traicionando a la vida.
José Luis Sampedro

Responder

Volver a “Cine Mudo”