Slava - nam, smert' - vragam (Yevgeni Bauer, 1914) WEBRip VOSE

Puntuación
Sin
puntuar

Glory to Us, Death to the Enemy

El maravilloso mundo del cine silente.
Hasta 1936 inclusive (<= 1936)

Moderador: Monsieur Lange

Responder
Avatar de Usuario
Lobo López
 
Mensajes: 1205
Registrado: 16 Oct 2012, 15:07
Ubicación: Cuenca
Agradecido : 1490 veces
Agradecimiento recibido: 2115 veces
Contactar:

Rusia Slava - nam, smert' - vragam (Yevgeni Bauer, 1914) WEBRip VOSE

Mensaje por Lobo López » 01 May 2014, 10:32

SLAVA - NAM, SMERT' - VRAGAM

Imagen

Imagen

Título original: Slava - nam, smert' - vragam
Director: Yevgeni Bauer
Año: 1914
País: Rusia
Fotografía: Boris Zavelev
Música: Franz Bauer
Intérpretes: Ivan Mozzhukhin, Dora Tschitorina
Duración: 32 min.
Producción: Khanzhonkov
------------------------------------------------------------------------------------------------------------------------------

Argumento: Melodrama ruso sobre la gesta heroica de una mujer durante la Primera Guerra Mundial.
------------------------------------------------------------------------------------------------------------------------------

ImagenImagen
ImagenImagen
ImagenImagen
ImagenImagen
ImagenImagen

Datos Técnicos:
Spoiler:
Format : Matroska
File size : 353 MiB
Duration : 31mn 42s
Overall bit rate : 1 558 Kbps
Encoded date : UTC 2014-04-30 20:29:21
Writing library : WonderShare Matroska Muxer

Video
ID : 1
Format : AVC
Format/Info : Advanced Video Codec
Format profile : Baseline@L3.0
Format settings, CABAC : No
Format settings, ReFrames : 1 frame
Muxing mode : Container profile=Unknown@3.0
Codec ID : V_MPEG4/ISO/AVC
Duration : 31mn 42s
Bit rate : 1 463 Kbps
Width : 720 pixels
Height : 540 pixels
Display aspect ratio : 4:3
Frame rate : 25.000 fps
Color space : YUV
Chroma subsampling : 4:2:0
Bit depth : 8 bits
Scan type : Progressive
Bits/(Pixel*Frame) : 0.151
Stream size : 332 MiB (94%)

Audio
ID : 2
Format : MPEG Audio
Format version : Version 1
Format profile : Layer 3
Codec ID : A_MPEG/L3
Codec ID/Hint : MP3
Duration : 31mn 42s
Bit rate mode : Constant
Bit rate : 64.0 Kbps
Channel(s) : 1 channel
Sampling rate : 32.0 KHz
Bit depth : 16 bits
Stream size : 14.5 MiB (4%)
Writing library : LAME3.98.2
------------------------------------------------------------------------------------------------------------------------------

:flecha: eD2K link Slava - nam, smert' - vragam (Yevgeni Bauer, 1914).mkv [353.37 Mb] 

En KG han realizado unos subtítulos en inglés:

eD2K link Slava - nam, smert' - vragam (Yevgeni Bauer, 1914.ENG.SRT [867 Bytes] 
Eddie Constanti escribió:Aquí tenéis los subtítulos en español:

http://www.subdivx.com/index.php?buscar ... ealiza_b=1
La copia se puede ver online AQUÍ.
------------------------------------------------------------------------------------------------------------------------------

Amigos, os traigo esta película inédita (creo que no está ni en Karagarga) de Yevgeni Bauer. La copia tiene intertítulos en ruso, pero son muy pocos. De todas formas si alguien que sepa ese idioma quisiera traducirla, me ofrezco a sacar los tiempos.

Película de propaganda pro-rusa protagonizada por el gran Ivan Mozzhukhin en uno de sus primeros roles principales. La música original parece que fue escrita por el padre de Bauer, que murió ese mismo año, pero esta copia carece de sonido alguno.


:hi:
Última edición por Lobo López el 12 Sep 2015, 01:47, editado 1 vez en total.

Avatar de Usuario
yojimbo
 
Mensajes: 6921
Registrado: 18 Oct 2012, 14:25
Agradecido : 6077 veces
Agradecimiento recibido: 1174 veces

Re: Slava - nam, smert' - vragam (Yevgeni Bauer, 1914) WEBRip VO

Mensaje por yojimbo » 01 May 2014, 12:06

Muchas gracias, Lobo.

Avatar de Usuario
Eddie Constanti
 
Mensajes: 3521
Registrado: 05 Ago 2013, 21:31
Ubicación: Vallès Oriental
Agradecido : 1121 veces
Agradecimiento recibido: 1833 veces

Re: Slava - nam, smert' - vragam (Yevgeni Bauer, 1914) WEBRip VO

Mensaje por Eddie Constanti » 01 May 2014, 13:06

Se te echaba de menos por aquí, Lobo. Gracias. La añadiremos a los Bauer que ya tenemos. :aplauso:

jail
 
Mensajes: 4284
Registrado: 18 Oct 2012, 15:34
Agradecido : 4747 veces
Agradecimiento recibido: 938 veces

Re: Slava - nam, smert' - vragam (Yevgeni Bauer, 1914) WEBRip VO

Mensaje por jail » 01 May 2014, 15:19

Gracias, Lobo.

vincente
 
Mensajes: 221
Registrado: 23 Nov 2012, 01:30
Agradecimiento recibido: 10 veces

Re: Slava - nam, smert' - vragam (Yevgeni Bauer, 1914) WEBRip VO

Mensaje por vincente » 01 May 2014, 20:24

Todo lo que se pueda conseguir de Bauer es bienvenido, gracias

Avatar de Usuario
JGUTII
 
Mensajes: 1627
Registrado: 19 Oct 2012, 05:57
Ubicación: Ciudad del Betis
Agradecido : 5004 veces
Agradecimiento recibido: 108 veces

Re: Slava - nam, smert' - vragam (Yevgeni Bauer, 1914) WEBRip VO

Mensaje por JGUTII » 02 May 2014, 06:25

Muchas gracias, Lobo. :hi:
Imagen

Avatar de Usuario
janca
 
Mensajes: 2529
Registrado: 16 Oct 2012, 16:39
Agradecido : 5638 veces
Agradecimiento recibido: 87 veces

Re: Slava - nam, smert' - vragam (Yevgeni Bauer, 1914) WEBRip VO

Mensaje por janca » 02 May 2014, 06:54

Gracias Lobo

Avatar de Usuario
boettcher
 
Mensajes: 1469
Registrado: 17 Oct 2012, 12:01
Agradecido : 878 veces
Agradecimiento recibido: 217 veces

Re: Slava - nam, smert' - vragam (Yevgeni Bauer, 1914) WEBRip VO

Mensaje por boettcher » 04 May 2014, 15:38

Gracias por traerla, Lobo :)

Avatar de Usuario
fifole
 
Mensajes: 3170
Registrado: 17 Oct 2012, 20:47
Agradecido : 3767 veces
Agradecimiento recibido: 6411 veces

Re: Slava - nam, smert' - vragam (Yevgeni Bauer, 1914) WEBRip VO

Mensaje por fifole » 04 May 2014, 19:15

Muy buen aporte.

Muchas gracias, Lobo. :aplauso:

Avatar de Usuario
Monsieur Lange
 
Mensajes: 3026
Registrado: 13 Sep 2012, 19:39
Ubicación: Cruzando las dunas
Agradecido : 144 veces
Agradecimiento recibido: 459 veces

Re: Slava - nam, smert' - vragam (Yevgeni Bauer, 1914) WEBRip VO

Mensaje por Monsieur Lange » 05 May 2014, 07:34

Muchas gracias lobo, pero es que no paras.
Mi mula ya pide auxilio :drinks:
"Adaptar no es recalentar la comida"
Alain Resnais

Responder

Volver a “Cine Mudo”