The Circle (Frank Borzage, 1925) TVRip VOSE

Puntuación
6/10
1 voto

La Eterna Cuestión

El maravilloso mundo del cine silente.
Hasta 1936 inclusive (<= 1936)

Moderador: Monsieur Lange

Responder
Avatar de Usuario
boettcher
 
Mensajes: 1628
Registrado: 17 Oct 2012, 12:01
Agradecido : 982 veces
Agradecimiento recibido: 287 veces

Estados Unidos The Circle (Frank Borzage, 1925) TVRip VOSE

Mensaje por boettcher » 22 Abr 2013, 17:30

The Circle (Frank Borzage, 1925) TVRip VOSE

Imagen

Imagen

IMDB

FICHA ARTÍSTICA

AÑO: 1925
DURACIÓN: 01:05:39
PAÍS: EEUU
IDIOMA: Inglés
DIRECTOR: Frank Borzage
GUIÓN: Kenneth B. Clarke (Obra: W. Somerset Maugham)
FOTOGRAFÍA: Chester A. Lyons (B&W)
MÚSICA: Película muda
REPARTO: Eleanor Boardman, Malcolm McGregor, Alec B. Francis, Eugenie Besserer, George Fawcett, Creighton Hale, Otto Hoffman, Eulalie Jensen, Buddy Smith, Joan Crawford, Derek Glynne, Frank Braidwood
GÉNERO: Drama.

SINOPSIS

Adaptación de la obra teatral de Somerset Maugham. (FILMAFFINITY)

DETALLES DEL RIPEO
El gran federico1921 los hizo en su día para un VHSRip anterior de inferior calidad. Yo únicamente resincronicé sus subtítulos para este gran TVRIP procedente de KG de zoneyoutwonk.

FICHA TÉCNICA

AVI File Details
========================================
General
Complete name : F:The Circle.avi
Format : AVI
Format/Info : Audio Video Interleave
File size : 846 MiB
Duration : 1h 5mn
Overall bit rate : 1 800 Kbps
Writing application : VirtualDubMod 1.5.10.2 (build 2540/release)
Writing library : VirtualDubMod build 2540/release

Video
ID : 0
Format : MPEG-4 Visual
Format profile : Advanced Simple@L5
Format settings, BVOP : 2
Format settings, QPel : No
Format settings, GMC : No warppoints
Format settings, Matrix : Default (H.263)
Muxing mode : Packed bitstream
Codec ID : XVID
Codec ID/Hint : XviD
Duration : 1h 5mn
Bit rate : 1 599 Kbps
Width : 624 pixels
Height : 464 pixels
Display aspect ratio : 4:3
Frame rate : 23.976 fps
Color space : YUV
Chroma subsampling : 4:2:0
Bit depth : 8 bits
Scan type : Progressive
Compression mode : Lossy
Bits/(Pixel*Frame) : 0.230
Stream size : 751 MiB (89%)
Writing library : XviD 1.2.1 (UTC 2008-12-04)

Audio
ID : 1
Format : MPEG Audio
Format version : Version 1
Format profile : Layer 3
Mode : Joint stereo
Mode extension : MS Stereo
Codec ID : 55
Codec ID/Hint : MP3
Duration : 1h 5mn
Bit rate mode : Constant
Bit rate : 192 Kbps
Channel(s) : 2 channels
Sampling rate : 48.0 KHz
Compression mode : Lossy
Stream size : 90.2 MiB (11%)
Alignment : Aligned on interleaves
Interleave, duration : 42 ms (1.00 video frame)
Interleave, preload duration : 504 ms

CAPTURAS

Imagen

Imagen

Imagen

Imagen

Imagen


ENLACE eMule

eD2K link (1925) The Circle (Frank Borzage).avi [845.51 Mb] 

ENLACE SUBTÍTULOS

Traducción de Federico1921. Resincronización de Electroshock83/boettcher


http://www.subdivx.com/bajar.php?id=328734&u=7

Saludos a todos. :drinks:
boettcher escribió:Dejo enlace a MEGA

https://mega.co.nz/#!XUkXVCqD!UXjrCxQMv ... IHYlJL-Ti8

Que lo disfrutéis! :drinks:
Última edición por boettcher el 23 Abr 2013, 17:54, editado 2 veces en total.

Avatar de Usuario
Lobo López
 
Mensajes: 1673
Registrado: 16 Oct 2012, 15:07
Ubicación: Cuenca
Agradecido : 3440 veces
Agradecimiento recibido: 4712 veces
Contactar:

Re: The Circle (Frank Borzage, 1925) TVRip VOSE

Mensaje por Lobo López » 22 Abr 2013, 17:49

¡Qué bien, boettcher! Borzage es de mis directores favoritos ;) y esta película merecía una copia de mejor calidad. ¡Muchas gracias! :aplauso: :aplauso: :colega:

Avatar de Usuario
hel
 
Mensajes: 1002
Registrado: 16 Oct 2012, 16:19
Ubicación: المرية
Agradecido : 1823 veces
Agradecimiento recibido: 945 veces

Re: The Circle (Frank Borzage, 1925) TVRip VOSE

Mensaje por hel » 22 Abr 2013, 22:59

Me parecía que el ripeo anterior pesaba más. He ido a mirar, y así es.


Pero...

Imagen
Imagen

Económico upgrade, sí señor, estimado boettcher.Grasiass..... :aplauso: :aplauso: :aplauso:




PD: ¿Alguien sabe qué le pasa al comando center?
--------------------------------------------------------------------


xayides


--------------------------------------------------------------------


Imagen

Avatar de Usuario
Bunker
 
Mensajes: 5225
Registrado: 03 Oct 2012, 00:05
Agradecido : 3 veces
Agradecimiento recibido: 1218 veces

Re: The Circle (Frank Borzage, 1925) TVRip VOSE

Mensaje por Bunker » 22 Abr 2013, 23:43

hel escribió: PD: ¿Alguien sabe qué le pasa al comando center?
Se están haciendo pruebas en el foro que afectan al BBCode, pronto estará todo en orden.

Un saludo

Avatar de Usuario
janca
 
Mensajes: 2600
Registrado: 16 Oct 2012, 16:39
Agradecido : 8954 veces
Agradecimiento recibido: 145 veces

Re: The Circle (Frank Borzage, 1925) TVRip VOSE

Mensaje por janca » 23 Abr 2013, 06:39

Gracias

Avatar de Usuario
boettcher
 
Mensajes: 1628
Registrado: 17 Oct 2012, 12:01
Agradecido : 982 veces
Agradecimiento recibido: 287 veces

Re: The Circle (Frank Borzage, 1925) TVRip VOSE

Mensaje por boettcher » 23 Abr 2013, 08:28

Dejo enlace a MEGA

https://mega.co.nz/#!XUkXVCqD!UXjrCxQMv ... IHYlJL-Ti8

Que lo disfrutéis! :drinks:

Avatar de Usuario
Paco Montoro
 
Mensajes: 80
Registrado: 23 Oct 2012, 11:23
Ubicación: Málaga, España
Agradecimiento recibido: 2 veces
Contactar:

Re: The Circle (Frank Borzage, 1925) TVRip VOSE

Mensaje por Paco Montoro » 23 Abr 2013, 20:39

Boettcher muchas gracias

Avatar de Usuario
Monsieur Lange
 
Mensajes: 5274
Registrado: 13 Sep 2012, 19:39
Ubicación: Cruzando las dunas
Agradecido : 1897 veces
Agradecimiento recibido: 1992 veces

Re: The Circle (Frank Borzage, 1925) TVRip VOSE

Mensaje por Monsieur Lange » 23 Abr 2013, 23:45

¡Muchas gracias boettcher!
Pinta estupéndamente y no anda bunker por aquí. Solo se está centrando :Me parto:
"...Colmar la ignorancia es postergar la escritura hasta mañana, o más bien volverla imposible..."
Gilles Deleuze: Diferencia y repetición

Avatar de Usuario
JGUTII
 
Mensajes: 1627
Registrado: 19 Oct 2012, 05:57
Ubicación: Ciudad del Betis
Agradecido : 4885 veces
Agradecimiento recibido: 119 veces

Re: The Circle (Frank Borzage, 1925) TVRip VOSE

Mensaje por JGUTII » 24 Abr 2013, 06:24

Muchas gracias, boettcher. :hi:
Imagen

Avatar de Usuario
sineintegral
 
Mensajes: 29
Registrado: 22 Abr 2013, 01:36
Agradecido : 1 vez
Agradecimiento recibido: 5 veces

Estados Unidos Re: The Circle (Frank Borzage, 1925) TVRip VOSE

Mensaje por sineintegral » 30 Abr 2013, 16:37

Muchas gracias! :hi: :aplauso: :lol:

Responder

Volver a “Cine Mudo”