When a Man Loves (Alan Crosland, 1927) VER ÍNDICE

Puntuación
Sin
puntuar

Los amores de Manón

El maravilloso mundo del cine silente.
Hasta 1936 inclusive (<= 1936)

Moderador: Monsieur Lange

Responder
Avatar de Usuario
Lobo López
 
Mensajes: 1205
Registrado: 16 Oct 2012, 15:07
Ubicación: Cuenca
Agradecido : 1490 veces
Agradecimiento recibido: 2115 veces
Contactar:

Estados Unidos When a Man Loves (Alan Crosland, 1927) VER ÍNDICE

Mensaje por Lobo López » 11 Mar 2013, 02:13

Índice de Ripeos: -
SATRip VO publicado por Lobo López
DVDRip VOSE publicado por montagut

*Nota: Tenga en cuenta la calidad de cada ripeo para hacer la mejor elección. Haga click aquí para más información.
WHEN A MAN LOVES

Imagen
Imagen
Imagen

IMDB

Título original: When a Man Loves
Título del estreno en España: Los amores de Manón
Director: Alan Crosland
Año: 1927
País: USA
Guión: Bess Meredyth (Basado en la novela Histoire du Chevalier des Grieux et de Manon Lescaut de Abbé Prévost, 1731)
Producción: Warner
Intérpretes: John Barrymore, Dolores Costello, Warner Oland, Sam De Grasse, Holmes Herbert, Stuart Holmes, Bertram Grassby
Duración: 112 min.

Argumento: Francia, siglo XVIII. Un noble que estudia para ser sacerdote abandona su vocación cuando se enamora de una hermosa, pero reticente, cortesana.

ImagenImagen
ImagenImagen
ImagenImagen
ImagenImagen
ImagenImagen
ImagenImagen
ImagenImagen
Datos Técnicos:
Spoiler:
Format : AVI
Format/Info : Audio Video Interleave
File size : 1.37 GiB
Duration : 1h 52mn
Overall bit rate : 1 740 Kbps
Writing application : VirtualDubMod 1.5.10.2 (build 2540/release)
Writing library : VirtualDubMod build 2540/release

Video
ID : 0
Format : MPEG-4 Visual
Format profile : Advanced Simple@L5
Format settings, BVOP : Yes
Format settings, QPel : No
Format settings, GMC : No warppoints
Format settings, Matrix : Default (MPEG)
Codec ID : XVID
Codec ID/Hint : XviD
Duration : 1h 52mn
Bit rate : 1 666 Kbps
Width : 576 pixels
Height : 432 pixels
Display aspect ratio : 4:3
Frame rate : 29.970 fps
Color space : YUV
Chroma subsampling : 4:2:0
Bit depth : 8 bits
Scan type : Progressive
Bits/(Pixel*Frame) : 0.223
Stream size : 1.31 GiB (96%)
Writing library : XviD 1.1.2 (UTC 2006-11-01)

Audio
ID : 1
Format : MPEG Audio
Format version : Version 1
Format profile : Layer 3
Codec ID : 55
Codec ID/Hint : MP3
Duration : 1h 52mn
Bit rate mode : Variable
Bit rate : 60.1 Kbps
Channel(s) : 1 channel
Sampling rate : 48.0 KHz
Stream size : 48.3 MiB (3%)
Alignment : Aligned on interleaves
Interleave, duration : 24 ms (0.72 video frame)
Interleave, preload duration : 466 ms

:flecha: eD2K link When a man loves -1927 Alan Crosland- (John Barrymore, Dolores Costello, Myrna Lo...TRip.english.avi [1.37 Gb] 

Película encontrada en el emule.


Comentarios:

- Hal Erickson:

Código: Seleccionar todo

 The same winning combination responsible for Don Juan-star John Barrymore, director Alan Crosland and screenwriter Bess Meredyth, once more aligned their talents for When a Man Loves. This adaptation of the classic novel and opera Manon Lescaut has been slightly rearranged to make the titular heroine (played by Barrymore's future wife Dolores Costello) a secondary figure and to place the emphasis on the male lead, Chevalier Fabian (Barrymore, of course). The luckless Manon is sold into a life of prostitution by her no-good brother Andre (Warner Oland). Servicing only the wealthiest and most influential men in Paris, Manon decides to chuck it all when she falls in love with the dashing Chevalier. But Manon waits too long to abandon her much-older "protector," the Count de Montfontaine (Sam De Grasse),and both hero and heroine suffer as a result. The final scenes find Manon and the Chevalier banished to the penal colony in New Orleans, where they experience a rather more positive denouement than the luckless lovers of the original Manon Lescaut. Among the "fallen women" shipped to New Orleans with Manon in the last reel is a young Myrna Loy.
 

Saludos :)

Avatar de Usuario
boettcher
 
Mensajes: 1469
Registrado: 17 Oct 2012, 12:01
Agradecido : 878 veces
Agradecimiento recibido: 217 veces

Re: When a Man Loves (Alan Crosland, 1927) SATRip Int. Ing.

Mensaje por boettcher » 11 Mar 2013, 10:46

Muchas gracias Lobo López :drinks:

Avatar de Usuario
janca
 
Mensajes: 2529
Registrado: 16 Oct 2012, 16:39
Agradecido : 5638 veces
Agradecimiento recibido: 87 veces

Re: When a Man Loves (Alan Crosland, 1927) SATRip Int. Ing.

Mensaje por janca » 12 Mar 2013, 06:33

Gracias Lobo

Avatar de Usuario
Monsieur Lange
 
Mensajes: 3026
Registrado: 13 Sep 2012, 19:39
Ubicación: Cruzando las dunas
Agradecido : 144 veces
Agradecimiento recibido: 459 veces

Re: When a Man Loves (Alan Crosland, 1927) SATRip Int. Ing.

Mensaje por Monsieur Lange » 16 Mar 2013, 13:44

:amo: :amo: :amo: Lobo :amo: :amo: :amo:
"Adaptar no es recalentar la comida"
Alain Resnais

Avatar de Usuario
tonapar1
 
Mensajes: 2645
Registrado: 16 Oct 2012, 20:19
Agradecido : 641 veces
Agradecimiento recibido: 452 veces

Re: When a Man Loves (Alan Crosland, 1927) SATRip Int. Ing.

Mensaje por tonapar1 » 20 Mar 2013, 00:17

Muchas gracias por el ripeo, Lobo Lopez. Un saludo

montagut
 
Mensajes: 242
Registrado: 04 Mar 2013, 23:16
Agradecido : 83 veces
Agradecimiento recibido: 797 veces

Estados Unidos When a Man Loves (Alan Crosland, 1927) DVDRip VOSE

Mensaje por montagut » 30 Jun 2017, 01:24

WHEN A MAN LOVES

Imagen

IMDB

Título original: When a Man Loves
Título del estreno en España: Los amores de Manón
Director: Alan Crosland
Año: 1927
País: USA
Guión: Bess Meredyth (Basado en la novela Histoire du Chevalier des Grieux et de Manon Lescaut de Abbé Prévost, 1731)
Producción: Warner
Intérpretes: John Barrymore, Dolores Costello, Warner Oland, Sam De Grasse, Holmes Herbert, Stuart Holmes, Bertram Grassby
Duración: 112 min.

Argumento: Francia, siglo XVIII. Un noble que estudia para ser sacerdote abandona su vocación cuando se enamora de una hermosa, pero reticente, cortesana.

ImagenImagen
ImagenImagen
ImagenImagen
ImagenImagen
ImagenImagen


Datos Técnicos:
Spoiler:
General
Complete name : When a man Loves (1927) DVDrip.avi
Format : AVI
Format/Info : Audio Video Interleave
File size : 1.18 GiB
Duration : 1 h 52 min
Overall bit rate : 1 497 kb/s

Video
ID : 0
Format : MPEG-4 Visual
Format profile : Advanced Simple@L4
Format settings, BVOP : 2
Format settings, QPel : No
Format settings, GMC : No warppoints
Format settings, Matrix : Default (H.263)
Codec ID : XVID
Codec ID/Hint : XviD
Duration : 1 h 52 min
Bit rate : 1 293 kb/s
Width : 720 pixels
Height : 480 pixels
Display aspect ratio : 4:3
Frame rate : 29.970 (30000/1001) FPS
Standard : NTSC
Color space : YUV
Chroma subsampling : 4:2:0
Bit depth : 8 bits
Scan type : Progressive
Compression mode : Lossy
Bits/(Pixel*Frame) : 0.125
Stream size : 1.02 GiB (86%)
Writing library : XviD 64

Audio
ID : 1
Format : AC-3
Format/Info : Audio Coding 3
Mode extension : CM (complete main)
Format settings, Endianness : Big
Codec ID : 2000
Duration : 1 h 52 min
Bit rate mode : Constant
Bit rate : 192 kb/s
Channel(s) : 2 channels
Channel positions : Front: L R
Sampling rate : 48.0 kHz
Frame rate : 31.250 FPS (1536 spf)
Bit depth : 16 bits
Compression mode : Lossy
Stream size : 154 MiB (13%)
Alignment : Aligned on interleaves
Interleave, duration : 32 ms (0.96 video frame)

:flecha: eD2K link When a man Loves (1927) DVDrip.avi [1.18 Gb] 
Subtitulos (Obra de Eddie Constanti): http://www.subdivx.com/X6XNTA2MDU2X-whe ... -1927.html


Comentarios:

- Hal Erickson:

Código: Seleccionar todo

 The same winning combination responsible for Don Juan-star John Barrymore, director Alan Crosland and screenwriter Bess Meredyth, once more aligned their talents for When a Man Loves. This adaptation of the classic novel and opera Manon Lescaut has been slightly rearranged to make the titular heroine (played by Barrymore's future wife Dolores Costello) a secondary figure and to place the emphasis on the male lead, Chevalier Fabian (Barrymore, of course). The luckless Manon is sold into a life of prostitution by her no-good brother Andre (Warner Oland). Servicing only the wealthiest and most influential men in Paris, Manon decides to chuck it all when she falls in love with the dashing Chevalier. But Manon waits too long to abandon her much-older "protector," the Count de Montfontaine (Sam De Grasse),and both hero and heroine suffer as a result. The final scenes find Manon and the Chevalier banished to the penal colony in New Orleans, where they experience a rather more positive denouement than the luckless lovers of the original Manon Lescaut. Among the "fallen women" shipped to New Orleans with Manon in the last reel is a young Myrna Loy.
 

xeneise007
 
Mensajes: 655
Registrado: 08 Ene 2013, 12:19
Ubicación: Reino de Aragón
Agradecido : 713 veces
Agradecimiento recibido: 109 veces

Re: When a Man Loves (Alan Crosland, 1927) DVDRip VOSE

Mensaje por xeneise007 » 30 Jun 2017, 05:37

Gracias Montagut y Eddie. Sigo descubriendo maravillas del silent gracias a vosotros. :aplauso: :aplauso:

ciberyago
 
Mensajes: 1853
Registrado: 20 Oct 2012, 07:26
Agradecimiento recibido: 151 veces

Re: When a Man Loves (Alan Crosland, 1927) DVDRip VOSE

Mensaje por ciberyago » 30 Jun 2017, 06:51

Muchas gracias!

Danyyyy
 
Mensajes: 1097
Registrado: 27 Ene 2015, 18:14
Agradecido : 485 veces
Agradecimiento recibido: 296 veces

Re: When a Man Loves (Alan Crosland, 1927) DVDRip VOSE

Mensaje por Danyyyy » 30 Jun 2017, 06:55

Tiene buena pinta. Gracias.

james mason
 
Mensajes: 849
Registrado: 03 Oct 2012, 11:31
Ubicación: En algún lugar de Extremadura
Agradecimiento recibido: 240 veces

Re: When a Man Loves (Alan Crosland, 1927) DVDRip VOSE

Mensaje por james mason » 30 Jun 2017, 11:20

Era un director con ciertas dosis de personalidad. Basta con ver sus colaboraciones con Barrymore (Don Juan, The Beloved Rogue y esta), Old San Francisco y una buena película como es Masacre.
Demasiado condicionado por ser el "creador" de The Jazz Singer. En este caso el invento devoró a su creador, aunque el verdadero creador fuera Zanuck.

El resto de su cine, salvo que me equivoque, es desconocido, permanece ausente, dentro de nuestras fronteras.

No sé si es la misma copia que yo tengo. De todos modos, muchas gracias por este continuo aflorar de silents, extraordinario trabajo el vuestro, queridos compañeros! :aplauso: :aplauso: :aplauso: :aplauso:

:hi:

Responder

Volver a “Cine Mudo”