A Tale of Two Cities (Frank Lloyd, 1917) VHSRip Int.Ing.

Puntuación
Sin
puntuar
El maravilloso mundo del cine silente.
Hasta 1936 inclusive (<= 1936)

Moderador: Monsieur Lange

Responder
Avatar de Usuario
Lobo López
 
Mensajes: 1246
Registrado: 16 Oct 2012, 15:07
Ubicación: Cuenca
Agradecido : 1674 veces
Agradecimiento recibido: 2280 veces
Contactar:

Estados Unidos A Tale of Two Cities (Frank Lloyd, 1917) VHSRip Int.Ing.

Mensaje por Lobo López » 21 Ene 2013, 11:43

A TALE OF TWO CITIES

Imagen

IMDB

Título original: A Tale of Two Cities
Director: Frank Lloyd
Año: 1917
País: USA
Guión: Frank Lloyd (basado en la novela “A Tale of Two Cities”, de Charles Dickens)
Producción: Fox Film Corp.
Intérpretes: William Farnum, Jewel Carmen, Charles Clary, Herschel Mayall, Rosita Marstini, Josef Swickard
Duración: 70 min.

Argumento: Comienza con la joven Lucie Manette que, junto al señor Lorry (antiguo empleado de su padre), rescata a su padre, a quien creía muerto y lo lleva a vivir a Inglaterra, tras pasar 15 años recluido y olvidado en la prisión de la Bastilla, donde fue encerrado en el calabozo 105 de la torre norte por la sanguinaria familia de los Ebremont.
Cinco años después, Lucie y su padre presencian el momento en que un noble francés acusado de espionaje llamado Charles Darnay es declarado inocente en una corte inglesa. En dicho juicio, Charles fue ayudado por Sidney Carton, un abogado de malas maneras que tiene fama de borracho y antiguo pretendiente de Lucie, quien ha hecho trizas su talento y sigue estando enamorado de ella.


ImagenImagen
ImagenImagen
ImagenImagen
ImagenImagen
ImagenImagen
ImagenImagen
ImagenImagen
Datos Técnicos:
Spoiler:
Format : AVI
Format/Info : Audio Video Interleave
File size : 562 MiB
Duration : 1h 20mn
Overall bit rate : 978 Kbps
Director : created.with.SUPER(C).v2008.bld.25
Writing application : VirtualDubMod 1.5.10.2 (build 2540/release)
Writing library : VirtualDubMod build 2540/release

Video
ID : 0
Format : MPEG-4 Visual
Format profile : Advanced Simple@L1
Format settings, BVOP : Yes
Format settings, QPel : No
Format settings, GMC : No warppoints
Format settings, Matrix : Default (H.263)
Codec ID : DX50
Codec ID/Hint : DivX 5
Duration : 1h 20mn
Bit rate : 839 Kbps
Width : 384 pixels
Height : 288 pixels
Display aspect ratio : 4:3
Frame rate : 29.970 fps
Color space : YUV
Chroma subsampling : 4:2:0
Bit depth : 8 bits
Scan type : Progressive
Bits/(Pixel*Frame) : 0.253
Stream size : 482 MiB (86%)
Writing library : Libavcodec

Audio
ID : 1
Format : MPEG Audio
Format version : Version 1
Format profile : Layer 3
Mode : Joint stereo
Mode extension : MS Stereo
Codec ID : 55
Codec ID/Hint : MP3
Duration : 1h 20mn
Bit rate mode : Constant
Bit rate : 128 Kbps
Channel(s) : 2 channels
Sampling rate : 44.1 KHz
Stream size : 73.5 MiB (13%)
Alignment : Split accross interleaves
Interleave, duration : 33 ms (1.00 video frame)
Interleave, preload duration : 500 ms
Imagen

:flecha: eD2K link A.Tale.Of.Two.Cities.(1917).VHS-Rip.(Sound.Restored).AVI [561.90 Mb] 

Película encontrada en el emule.

Comentarios:

- movieclassics:

Código: Seleccionar todo

 This one was directed by melodrama expert Frank Lloyd, who went on to make another silent Dickens film,Oliver Twist, in 1922 before  his famous talkies like Cavalcade andMutiny on the Bounty. You can see how much silent films had advanced in just a few years between 1911 and 1917, because the second film is feature-length (more than 70 minutes) and a far more lavishly produced affair all round, with spectacular mob scenes and a huge cast of extras. The powerful sequence in the book where the starving crowds lap up spilt wine from the street makes a great film scene, moving straight on to the devastating moment where the Marquis mows down a poor child with his carriage.
There are also some clever camera angles from cinematographer William C Foster – when the Bastille is stormed, the drawbridge is seen collapsing from inside,  and, when Manette (Josef Swickard) is reunited with Lucie (Jewel Carmen), he is touched by faint shadows of prison bars, suggesting how he will be unable ever to be truly free. However, the most striking thing about this version is the double performance by actor William Farnum, who was a major heart-throb at the time, as both Carton and Darnay – he manages to make the two recognisably different from one another by his facial expressions (helped by different hairstyles), and, as in the earlier film, there is a great mirror scene in the inn. In this one, Carton actually sees Darnay’s face looking back at him from the mirror and mocking him.
- Debra Ann Pawlak:

Código: Seleccionar todo

 Lloyd joined the Fox Film Corporation in 1916 where he continued writing and directing with some success, but it was not until he collaborated with author Charles Dickens that he scored a major hit. Feeling that it might be better to film Dickens’ classic novel A Tale of Two Cities than one of his own original stories, Lloyd went to great lenghts to capture the saga with all of its historical details. As a result, one reviewer declared that with these seven reels of him, Lloyd “earned himself a place in the hall of fame directors.”

Saludos :)

Avatar de Usuario
rubeum
 
Mensajes: 330
Registrado: 16 Oct 2012, 15:47
Ubicación: Braga, Portugal
Agradecido : 147 veces
Agradecimiento recibido: 139 veces

Re: A Tale of Two Cities (Frank Lloyd, 1917) VHSRip Int.Ing.

Mensaje por rubeum » 21 Ene 2013, 19:43

Muchas gracias, compañero. No la conozco, así es que aprovecharé mi convalecencia para disfrutarla.

Un saludo desde Salamanca.

Avatar de Usuario
aguadulce
 
Mensajes: 552
Registrado: 03 Dic 2012, 02:39
Ubicación: Madrid
Agradecido : 1223 veces
Agradecimiento recibido: 69 veces

Re: A Tale of Two Cities (Frank Lloyd, 1917) VHSRip Int.Ing.

Mensaje por aguadulce » 21 Ene 2013, 22:49

Muchas gracias Lobo Lopez

Avatar de Usuario
Monsieur Lange
 
Mensajes: 3265
Registrado: 13 Sep 2012, 19:39
Ubicación: Cruzando las dunas
Agradecido : 212 veces
Agradecimiento recibido: 659 veces

Re: A Tale of Two Cities (Frank Lloyd, 1917) VHSRip Int.Ing.

Mensaje por Monsieur Lange » 22 Ene 2013, 14:03

Gracias Lobo :aplauso:
"Adaptar no es recalentar la comida"
Alain Resnais

xeneise007
 
Mensajes: 760
Registrado: 08 Ene 2013, 12:19
Ubicación: Reino de Aragón
Agradecido : 910 veces
Agradecimiento recibido: 181 veces

Re: A Tale of Two Cities (Frank Lloyd, 1917) VHSRip Int.Ing.

Mensaje por xeneise007 » 22 Ene 2013, 16:19

Esta version no la conocia, aprovecho y me la quedo. :aplauso:

Un saludo :up:

Avatar de Usuario
tonapar1
 
Mensajes: 3023
Registrado: 16 Oct 2012, 20:19
Agradecido : 673 veces
Agradecimiento recibido: 607 veces

Re: A Tale of Two Cities (Frank Lloyd, 1917) VHSRip Int.Ing.

Mensaje por tonapar1 » 23 Ene 2013, 11:54

Muchas gracias por el ripeo a Lobo Lopez. Un saludo

Avatar de Usuario
JGUTII
 
Mensajes: 1627
Registrado: 19 Oct 2012, 05:57
Ubicación: Ciudad del Betis
Agradecido : 5004 veces
Agradecimiento recibido: 109 veces

Re: A Tale of Two Cities (Frank Lloyd, 1917) VHSRip Int.Ing.

Mensaje por JGUTII » 23 Ene 2013, 22:23

Muchas gracias, Lobo. :hi:

¿No tendría alguien la versión de 1911? http://www.imdb.com/title/tt0001915/
Imagen

Responder

Volver a “Cine Mudo”