Les petits soldats de plomb (Pierre Bressol, 1916) WEBRip VOSE

Puntuación
6/10
1 voto
El maravilloso mundo del cine silente.
Hasta 1936 inclusive (<= 1936)

Moderador: Monsieur Lange

Responder
Avatar de Usuario
Lobo López
 
Mensajes: 1824
Registrado: 16 Oct 2012 15:07
Ubicación: Cuenca
Agradecido : 4326 veces
Agradecimiento recibido: 5963 veces
Contactar:

Francia Les petits soldats de plomb (Pierre Bressol, 1916) WEBRip VOSE

Mensaje por Lobo López » 12 Ene 2022 10:56


CICLO “TESOROS PATHÉ-GAUMONT” (113)


LES PETITS SOLDATS DE PLOMB
(Los soldaditos de plomo)


Imagen

Imagen

FILMAFFINITY

Director: Pierre Bressol
Reparto: Jean Fleury, Pierre Bressol, Suzanne Delvé, Léon Bernard, Thérèse Cernay
Guion: Pierre Bressol
Año: 1916
País: Francia
Duración: 15 min.
Producción: Pathé Consortium Cinéma
Género: Drama | Animación


Argumento: La película cuenta la historia del pequeño Bébé, cuyo padre está en el frente, que recibe de su tío una caja de soldaditos de plomo. Se ponen a jugar a la guerra y el tío explica al niño estrategias de batallas y ataques. Cuando el pequeño se va a dormir sueña que los soldaditos toman vida y luchan una guerra que ganan los franceses.




ImagenImagen
ImagenImagen


Datos Técnicos:
Spoiler:
Format : MPEG-4
Format profile : Base Media
Codec ID : isom (isom/iso2/avc1/mp41)
File size : 84.0 MiB
Duration : 15 min
Overall bit rate : 769 kb/s
Writing application : Lavf54.63.104

Video
ID : 1
Format : AVC
Format/Info : Advanced Video Codec
Format profile : High@L3
Format settings, CABAC : Yes
Format settings, ReFrames : 4 frames
Codec ID : avc1
Codec ID/Info : Advanced Video Coding
Duration : 15 min
Bit rate : 685 kb/s
Width : 640 pixels
Height : 486 pixels
Display aspect ratio : 4:3
Original display aspect rat : 4:3
Frame rate mode : Constant
Frame rate : 25.000 FPS
Color space : YUV
Chroma subsampling : 4:2:0
Bit depth : 8 bits
Scan type : Progressive
Bits/(Pixel*Frame) : 0.088
Stream size : 73.1 MiB (87%)
Writing library : x264 core 133
Encoding settings : cabac=1 / ref=3 / deblock=1:0:0 / analyse=0x3:0x113 / me=hex / subme=7 / psy=1 / psy_rd=1.00:0.00 / mixed_ref=1 / me_range=16 / chroma_me=1 / trellis=1 / 8x8dct=1 / cqm=0 / deadzone=21,11 / fast_pskip=1 / chroma_qp_offset=-2 / threads=3 / lookahead_threads=1 / sliced_threads=0 / nr=0 / decimate=1 / interlaced=0 / bluray_compat=0 / constrained_intra=0 / bframes=3 / b_pyramid=2 / b_adapt=1 / b_bias=0 / direct=1 / weightb=1 / open_gop=0 / weightp=2 / keyint=250 / keyint_min=25 / scenecut=40 / intra_refresh=0 / rc_lookahead=40 / rc=abr / mbtree=1 / bitrate=685 / ratetol=1.0 / qcomp=0.60 / qpmin=0 / qpmax=69 / qpstep=4 / ip_ratio=1.40 / aq=1:1.00
Language : English

Audio
ID : 2
Format : AAC
Format/Info : Advanced Audio Codec
Format profile : LC
Codec ID : 40
Duration : 15 min
Duration_LastFrame : 13 ms
Bit rate mode : Constant
Bit rate : 93.6 kb/s
Channel(s) : 2 channels
Channel positions : Front: L R
Sampling rate : 44.1 kHz
Frame rate : 43.066 FPS (1024 spf)
Compression mode : Lossy
Stream size : 10.2 MiB (12%)
Language : English
Default : Yes
Alternate group : 1


Comentario de Eddie Constanti:

En este cortometraje, papá está en el frente y escribe a su esposa e hijo. Mientras, un tío le trae al niño un grupo de soldaditos de plomo y mientras los adultos leen una carta del frente, el niño juega con los soldados. Más tarde, cuando él duerme, los soldados luchan en una batalla.

Se trata de un corto de acción en vivo, con un par de minutos en dibujos animados. Papá está en el frente en este cortometraje y escribe a su esposa e hijo a casa. Mientras, un tío le trae al niño un grupo de soldados de plomo y juegan a las guerras. Parece un argumento demasiado crudo para ser una película dirigida a niños, pero la guerra había estado en curso durante un par de años en este momento y no terminaría hasta un período de tiempo igual.



Subtítulos en español de Eddie Constanti:

https://www.opensubtitles.org/es/subtit ... e-plomb-es

eD2K link Les petits soldats de plomb 1916.mp4 [84.05 Mb] 

:hi:

Avatar de Usuario
Graveland
 
Mensajes: 4722
Registrado: 22 Nov 2012 15:30
Agradecido : 3573 veces
Agradecimiento recibido: 4159 veces

Re: Les petits soldats de plomb (Pierre Bressol, 1916) WEBRip VOSE

Mensaje por Graveland » 12 Ene 2022 13:48

Muchas gracias, Lobo y Eddie.

Avatar de Usuario
Eddie Constanti
 
Mensajes: 6497
Registrado: 05 Ago 2013 21:31
Ubicación: Vallès Oriental
Agradecido : 313 veces
Agradecimiento recibido: 4963 veces

Re: Les petits soldats de plomb (Pierre Bressol, 1916) WEBRip VOSE

Mensaje por Eddie Constanti » 12 Ene 2022 14:48

Gracias, Lobo, por esta reliquia.
Recordad que el espacio para los intertítulos de los silentes a veces es muy corto y el texto "pisa" la imagen.
Las cursivas que veis aparecen en el original.

Avatar de Usuario
Monsieur Lange
 
Mensajes: 5974
Registrado: 13 Sep 2012 19:39
Ubicación: Cruzando las dunas
Agradecido : 2684 veces
Agradecimiento recibido: 2646 veces

Re: Les petits soldats de plomb (Pierre Bressol, 1916) WEBRip VOSE

Mensaje por Monsieur Lange » 12 Ene 2022 15:10

Gracias Lobo y Eddie. Interesante corto. Ya con ganas de verlo. :hi:
"Esos chicos …/… hablando de los años veinte a veinticinco, revolviendo unos con otros como si todos fuesen unos .../… como si hubieran sido todos de la misma tertulia"
Max Aub: La gallina ciega

Angeluco
 
Mensajes: 2212
Registrado: 25 Nov 2012 12:41
Agradecido : 3606 veces
Agradecimiento recibido: 1161 veces

Re: Les petits soldats de plomb (Pierre Bressol, 1916) WEBRip VOSE

Mensaje por Angeluco » 12 Ene 2022 16:23

Muchas gracias,Lobo y Eddie.

Avatar de Usuario
Prudencio
 
Mensajes: 5840
Registrado: 16 Oct 2012 18:46
Agradecido : 6397 veces
Agradecimiento recibido: 2642 veces

Re: Les petits soldats de plomb (Pierre Bressol, 1916) WEBRip VOSE

Mensaje por Prudencio » 12 Ene 2022 18:13

Muchas gracias, Lobo y Eddie. :hi:

jaumeroc
 
Mensajes: 32
Registrado: 29 Nov 2017 16:49
Agradecido : 365 veces
Agradecimiento recibido: 10 veces

Re: Les petits soldats de plomb (Pierre Bressol, 1916) WEBRip VOSE

Mensaje por jaumeroc » 12 Ene 2022 19:51

Muchas gracias.

Avatar de Usuario
yojimbo
 
Mensajes: 11826
Registrado: 18 Oct 2012 14:25
Agradecido : 11312 veces
Agradecimiento recibido: 3283 veces

Re: Les petits soldats de plomb (Pierre Bressol, 1916) WEBRip VOSE

Mensaje por yojimbo » 13 Ene 2022 16:01

Muchas gracias, Lobo López y Eddie Constanti.

rdeespana
 
Mensajes: 1258
Registrado: 06 Dic 2012 03:30
Agradecido : 4246 veces
Agradecimiento recibido: 1020 veces

Re: Les petits soldats de plomb (Pierre Bressol, 1916) WEBRip VOSE

Mensaje por rdeespana » 13 Ene 2022 18:08

En 1916 era muy divertido jugar a la guerra...; por supuesto, los poilus en las trincheras se lo pasaban bomba (...nunca mejor dicho).
Me trae a la mente La guerra e il sogno di Momi, aunque en esta, por lo menos, los alardes técnicos compensaban un mensaje demasiado... coyuntural.

Responder

Volver a “Cine Mudo”