When Knights Were Cold (Frank Fouce, 1923) BDRip 1080p VOSE

Puntuación
Sin
puntuar
El maravilloso mundo del cine silente.
Hasta 1936 inclusive (<= 1936)

Moderador: Monsieur Lange

Responder
Avatar de Usuario
Lobo López
 
Mensajes: 1807
Registrado: 16 Oct 2012 15:07
Ubicación: Cuenca
Agradecido : 4186 veces
Agradecimiento recibido: 5795 veces
Contactar:

Estados Unidos When Knights Were Cold (Frank Fouce, 1923) BDRip 1080p VOSE

Mensaje por Lobo López » 13 Jun 2021 13:11

L. & H. antes del "Gordo y el Flaco" (52)

WHEN KNIGHTS WERE COLD
(Cuando los caballeros eran fríos)


Imagen

Imagen

FILMAFFINITY

Director: Frank Fouce
Reparto: Stan Laurel, Mae Laurel, Catherine Bennett, Scotty MacGregor, Billy Armstrong, Will Bovis, Stanhope Wheatcroft, Harry De More
Guion: Tom Miranda
Año: 1923
País: USA
Duración: 15 min.
Producción: Quality Film Productions
Género: Comedia


Argumento: Película de la que sólo queda una mitad. Stan es un personaje tipo Robin Hood en una ciudad medieval amurallada. Es perseguido por un ejército de caballeros, pero tanto él como sus perseguidores montan disfraces de medio caballo en lugar de los de carne y hueso. Stan, como Fairbanks, lucha contra docenas de espadachines a la vez.


ImagenImagen
ImagenImagen


Datos Técnicos:
Spoiler:
Format : Matroska
Format version : Version 4 / Version 2
File size : 1.01 GiB
Duration : 15 min
Overall bit rate : 9 503 kb/s
Encoded date : UTC 2021-06-13 10:09:42
Writing application : mkvmerge v9.1.0 ('Little Earthquakes') 64bit
Writing library : libebml v1.3.3 + libmatroska v1.4.4 / Lavf58.29.100

Video
ID : 1
Format : AVC
Format/Info : Advanced Video Codec
Format profile : Main@L4.1
Format settings, CABAC : Yes
Format settings, ReFrames : 4 frames
Codec ID : V_MPEG4/ISO/AVC
Duration : 15 min
Bit rate : 7 876 kb/s
Width : 1 434 pixels
Height : 1 074 pixels
Display aspect ratio : 4:3
Frame rate mode : Constant
Frame rate : 23.976 (24000/1001) FPS
Color space : YUV
Chroma subsampling : 4:2:0
Bit depth : 8 bits
Scan type : Progressive
Bits/(Pixel*Frame) : 0.213
Stream size : 860 MiB (83%)
Writing library : x264 core 157 r2935 545de2f
Encoding settings : cabac=1 / ref=3 / deblock=1:-1:-1 / analyse=0x1:0x111 / me=hex / subme=7 / psy=1 / psy_rd=1.00:0.15 / mixed_ref=1 / me_range=16 / chroma_me=1 / trellis=1 / 8x8dct=0 / cqm=0 / deadzone=21,11 / fast_pskip=1 / chroma_qp_offset=-3 / threads=6 / lookahead_threads=1 / sliced_threads=0 / nr=0 / decimate=1 / interlaced=0 / bluray_compat=0 / constrained_intra=0 / bframes=3 / b_pyramid=2 / b_adapt=1 / b_bias=0 / direct=1 / weightb=1 / open_gop=0 / weightp=2 / keyint=240 / keyint_min=24 / scenecut=40 / intra_refresh=0 / rc_lookahead=40 / rc=crf / mbtree=1 / crf=22.0 / qcomp=0.60 / qpmin=0 / qpmax=69 / qpstep=4 / vbv_maxrate=50000 / vbv_bufsize=62500 / crf_max=0.0 / nal_hrd=none / filler=0 / ip_ratio=1.40 / aq=1:1.00
Language : English
Default : Yes
Forced : No
Color range : Limited
Color primaries : BT.709
Transfer characteristics : BT.709
Matrix coefficients : BT.709

Audio #1
ID : 2
Format : DTS
Format/Info : Digital Theater Systems
Format profile : MA / Core
Mode : 16
Format settings, Endianness : Big
Codec ID : A_DTS
Duration : 15 min
Bit rate mode : Variable / Constant
Bit rate : 855 kb/s / 768 kb/s
Channel(s) : 2 channels
Channel positions : Front: L R
Sampling rate : 48.0 kHz
Frame rate : 93.750 FPS (512 spf)
Bit depth : 16 bits
Compression mode : Lossless / Lossy
Stream size : 93.3 MiB (9%)
Default : Yes
Forced : No

Audio #2
ID : 3
Format : DTS
Format/Info : Digital Theater Systems
Mode : 16
Format settings, Endianness : Big
Codec ID : A_DTS
Duration : 15 min
Bit rate mode : Constant
Bit rate : 768 kb/s
Channel(s) : 2 channels
Channel positions : Front: L R
Sampling rate : 48.0 kHz
Frame rate : 93.750 FPS (512 spf)
Bit depth : 16 bits
Compression mode : Lossy
Stream size : 83.9 MiB (8%)
Default : No
Forced : No

Text
ID : 4
Format : UTF-8
Codec ID : S_TEXT/UTF8
Codec ID/Info : UTF-8 Plain Text
Duration : 15 min
Bit rate : 10 b/s
Count of elements : 24
Stream size : 1.18 KiB (0%)
Language : Spanish
Default : Yes
Forced : No

Menu
00:00:00.000 : :Chapter 1
00:00:12.888 : :Chapter 2


Comentario:

Otra de las parodias de Laurel, esta vez centrada en las películas de capa y espada de Fairbanks. La trama que nos ha llegado le muestra dispuesto a rescatar a una princesa a quien quieren casar con un personaje siniestro. Hay gags bastante conseguidos y el nombre de los actores realza el tono de farsa de la historia (Elizabeth New Jersey, conde de Tabasco, príncipe Pluto, etcétera). En el reparto también interviene Mae, la esposa de Stan.

(Eddie Constanti.)



Subtítulos en español de Eddie Constanti dentro del contenedor del archivo.

eD2K link When Knights Were Cold (1923) BDRip 1080p VOSE -- Stan Laurel.mkv [1.01 Gb] 

Imagen

:hi:

Avatar de Usuario
Prudencio
 
Mensajes: 5765
Registrado: 16 Oct 2012 18:46
Agradecido : 6296 veces
Agradecimiento recibido: 2601 veces

Re: When Knights Were Cold (Frank Fouce, 1923) BDRip 1080p VOSE

Mensaje por Prudencio » 13 Jun 2021 13:48

Mucha gracias, Lobo y Eddie. :hi:

Avatar de Usuario
fifole
 
Mensajes: 5356
Registrado: 17 Oct 2012 20:47
Agradecido : 15341 veces
Agradecimiento recibido: 22264 veces

Re: When Knights Were Cold (Frank Fouce, 1923) BDRip 1080p VOSE

Mensaje por fifole » 13 Jun 2021 13:55

Por más que la parodia mire de reojo a Fairbanks, como bien dice Eddie, el título del corto me sugiere casi en mayor medida un juego de palabras con el título de la película protagoniza por Marion Davies estrenada el año anterior, "When Knighthood Was in Flower".

Muchas gracias, Lobo y Eddie. :hi:

Avatar de Usuario
Eddie Constanti
 
Mensajes: 6393
Registrado: 05 Ago 2013 21:31
Ubicación: Vallès Oriental
Agradecido : 310 veces
Agradecimiento recibido: 4696 veces

Re: When Knights Were Cold (Frank Fouce, 1923) BDRip 1080p VOSE

Mensaje por Eddie Constanti » 13 Jun 2021 14:28

Gracias, Lobo.
Recordad que el espacio para los intertítulos de los silentes a veces es muy corto y el texto "pisa" la imagen.
Las cursivas que veis aparecen en el original.

Angeluco
 
Mensajes: 2153
Registrado: 25 Nov 2012 12:41
Agradecido : 3444 veces
Agradecimiento recibido: 1130 veces

Re: When Knights Were Cold (Frank Fouce, 1923) BDRip 1080p VOSE

Mensaje por Angeluco » 14 Jun 2021 17:00

Muchas gracias,Lobo y Eddie.

Avatar de Usuario
gatatitania
 
Mensajes: 5710
Registrado: 16 Oct 2012 18:27
Ubicación: Gatatitania es un gato hambriento, superviviente del planeta gatatitania...
Agradecido : 3029 veces
Agradecimiento recibido: 1807 veces

Re: When Knights Were Cold (Frank Fouce, 1923) BDRip 1080p VOSE

Mensaje por gatatitania » 16 Jun 2021 16:51

¡Gracias! ¡Me la llevo! :yahoo: :yahoo: :yahoo:

Avatar de Usuario
yojimbo
 
Mensajes: 11615
Registrado: 18 Oct 2012 14:25
Agradecido : 11064 veces
Agradecimiento recibido: 3193 veces

Re: When Knights Were Cold (Frank Fouce, 1923) BDRip 1080p VOSE

Mensaje por yojimbo » 25 Nov 2021 18:51

Muchas gracias, Lobo López y Eddie Constanti.

Responder

Volver a “Cine Mudo”