Le coffret de Tolède (Louis Feuillade, 1914) WEBRip VOSE

Puntuación
5/10
1 voto
El maravilloso mundo del cine silente.
Hasta 1936 inclusive (<= 1936)

Moderador: Monsieur Lange

Responder
Avatar de Usuario
Lobo López
 
Mensajes: 1569
Registrado: 16 Oct 2012, 15:07
Ubicación: Cuenca
Agradecido : 3248 veces
Agradecimiento recibido: 4538 veces
Contactar:

Francia Le coffret de Tolède (Louis Feuillade, 1914) WEBRip VOSE

Mensaje por Lobo López » 07 Abr 2020, 15:23


CICLO “TESOROS PATHÉ-GAUMONT” (53)


LE COFFRET DE TOLÈDE
(El cofre de Toledo)


Imagen
Imagen
Imagen

Título original: Le coffret de Tolède
Director: Louis Feuillade
Reparto: Fernand Herrmann, Suzanne Le Bret, René Navarre, Renée Carl, Edmund Breon
Guion: Louis Feuillade
Año: 1914
País: Francia
Duración: 20 min.
Producción: Gaumont
Género: Intriga


Argumento: Un matrimonio realiza un viaje por España. Cuando están visitando Toledo, un vendedor les ofrece un antiguo cofrecillo en el que encuentran escondido un extraño mensaje.




ImagenImagen
ImagenImagen

Datos Técnicos:
Spoiler:
Format : Matroska
Format version : Version 4 / Version 2
File size : 202 MiB
Duration : 21 min
Overall bit rate : 1 340 kb/s
Encoded date : UTC 2019-12-15 17:00:33
Writing application : mkvmerge v9.1.0 ('Little Earthquakes') 64bit
Writing library : libebml v1.3.3 + libmatroska v1.4.4

Video
ID : 1
Format : AVC
Format/Info : Advanced Video Codec
Format profile : High@L4.1
Format settings, CABAC : Yes
Format settings, ReFrames : 16 frames
Codec ID : V_MPEG4/ISO/AVC
Duration : 21 min
Bit rate : 1 339 kb/s
Width : 608 pixels
Height : 476 pixels
Display aspect ratio : 1.277
Frame rate mode : Constant
Frame rate : 25.000 FPS
Color space : YUV
Chroma subsampling : 4:2:0
Bit depth : 8 bits
Scan type : Progressive
Bits/(Pixel*Frame) : 0.185
Stream size : 202 MiB (100%)
Writing library : x264 core 129 r2245+729M 1a52e03
Encoding settings : cabac=1 / ref=16 / deblock=1:-2:-2 / analyse=0x3:0x133 / me=umh / subme=10 / psy=1 / fade_compensate=0.00 / psy_rd=1.00:0.25 / mixed_ref=1 / me_range=24 / chroma_me=1 / trellis=2 / 8x8dct=1 / cqm=0 / deadzone=6,6 / fast_pskip=0 / chroma_qp_offset=-4 / threads=6 / lookahead_threads=1 / sliced_threads=0 / nr=0 / decimate=0 / interlaced=0 / bluray_compat=0 / constrained_intra=0 / fgo=0 / bframes=8 / b_pyramid=2 / b_adapt=2 / b_bias=0 / direct=3 / weightb=1 / open_gop=0 / weightp=2 / keyint=250 / keyint_min=25 / scenecut=40 / intra_refresh=0 / rc_lookahead=60 / rc=crf / mbtree=1 / crf=19.0 / qcomp=0.80 / qpmin=0 / qpmax=69 / qpstep=4 / ip_ratio=1.10 / aq=1:0.50
Language : French
Default : Yes
Forced : No

Text
ID : 2
Format : UTF-8
Codec ID : S_TEXT/UTF8
Codec ID/Info : UTF-8 Plain Text
Duration : 20 min
Bit rate : 19 b/s
Count of elements : 59
Stream size : 3.00 KiB (0%)
Language : Spanish
Default : Yes
Forced : No


:flecha: eD2K link le.coffret.de.tolède.1914.webrip.x264.spa.subs.mkv [201.74 Mb] 

Subtítulos en español de Eddie Constanti incluidos dentro del archivo mkv.



Comentario de Eddie Constanti:

Un poco de Feuillade es mucho y para muestra este hermoso "botón" de veintiún minutos que pasa por ser quizá la primera película filmada en Toledo por un francés. Toda una rareza que tenemos el privilegio de ver gracias a ese otro cofre de las maravillas que es la web Pathé-Gaumont. Y con el añadido de unos intérpretes de excepción: René Navarre ("Fantomas", "Vidocq", "El fantasma del Louvre"), Renée Carl ("Fantomas" y decenas de cortos con Feuillade), Fernand Hermann ("Barrabás", "Les vampires"), Suzanne Le Bret, etcétera.

El guión es simple como un cuento corto: dos parejas, una de ellas que quiere visitar España, la otra que esconde un secreto (que aquí no revelaremos, líbrenos Dios) y ese típico spanish-man con borrico incluido que ofrece un cofrecillo cargado de misterios. Nada más. Y nada menos. Hay que decir que Feuillade tampoco se rompió el cerebelo para la filmación y a uno se le ocurre que quizá aprovechase un viajecito a la piel de toro para montar este corto con cuatro amiguetes.

El valor cinematográfico tal vez sea mínimo. El valor sentimental e histórico, inmenso. Y al final incluso hay una sorpresa. ¿Os lo vais a perder?





:hi:

Avatar de Usuario
Eddie Constanti
 
Mensajes: 5059
Registrado: 05 Ago 2013, 21:31
Ubicación: Vallès Oriental
Agradecido : 1243 veces
Agradecimiento recibido: 4264 veces

Re: Le coffret de Tolède (Louis Feuillade, 1914) WEBRip VOSE

Mensaje por Eddie Constanti » 07 Abr 2020, 15:25

Gracias, Lobo.

Avatar de Usuario
toerless
 
Mensajes: 924
Registrado: 16 Oct 2012, 16:27
Agradecido : 127 veces
Agradecimiento recibido: 605 veces

Re: Le coffret de Tolède (Louis Feuillade, 1914) WEBRip VOSE

Mensaje por toerless » 07 Abr 2020, 17:08

¿DD para los que no somos muleros?

Avatar de Usuario
Eddie Constanti
 
Mensajes: 5059
Registrado: 05 Ago 2013, 21:31
Ubicación: Vallès Oriental
Agradecido : 1243 veces
Agradecimiento recibido: 4264 veces

Re: Le coffret de Tolède (Louis Feuillade, 1914) WEBRip VOSE

Mensaje por Eddie Constanti » 07 Abr 2020, 18:06

toerless escribió:
07 Abr 2020, 17:08
¿DD para los que no somos muleros?
Ya te la mando.

Avatar de Usuario
Prudencio
 
Mensajes: 4722
Registrado: 16 Oct 2012, 18:46
Agradecido : 5325 veces
Agradecimiento recibido: 1965 veces

Re: Le coffret de Tolède (Louis Feuillade, 1914) WEBRip VOSE

Mensaje por Prudencio » 07 Abr 2020, 19:01

Muchas gracias, Lobo y Eddie. :hi:

Avatar de Usuario
Monsieur Lange
 
Mensajes: 4741
Registrado: 13 Sep 2012, 19:39
Ubicación: Cruzando las dunas
Agradecido : 1554 veces
Agradecimiento recibido: 1666 veces

Re: Le coffret de Tolède (Louis Feuillade, 1914) WEBRip VOSE

Mensaje por Monsieur Lange » 07 Abr 2020, 19:18


Comentario de Eddie Constanti:
y ese típico spanish-man con borrico incluido que...
..ya te digo... ¡El mismo que pintaba Horacio en un claustro toledano en "Tristana"
Imagen
Normal que sea así. Tristana y Horacio anduvieron por Toledo por las mismas fechas que Feuillade...

¡Muchísimas gracias por regalarnos esta alegría, Lobo y Eddie. Hoy la tarde va a ser mucho más llevadera. :aplauso: :aplauso: :aplauso:
"Adaptar no es recalentar la comida"
Alain Resnais

Avatar de Usuario
Graveland
 
Mensajes: 3649
Registrado: 22 Nov 2012, 15:30
Agradecido : 2301 veces
Agradecimiento recibido: 3707 veces

Re: Le coffret de Tolède (Louis Feuillade, 1914) WEBRip VOSE

Mensaje por Graveland » 07 Abr 2020, 22:46

Muchas gracias, Lobo y Eddie.

Avatar de Usuario
sete
 
Mensajes: 4572
Registrado: 22 Dic 2012, 16:10
Agradecido : 250 veces
Agradecimiento recibido: 1410 veces

Re: Le coffret de Tolède (Louis Feuillade, 1914) WEBRip VOSE

Mensaje por sete » 08 Abr 2020, 11:39

Muchas gracias, Lobo López y Eddie Constanti.
:hi:
Este mundo está traicionando a la vida.
José Luis Sampedro

Angeluco
 
Mensajes: 1544
Registrado: 25 Nov 2012, 12:41
Agradecido : 1822 veces
Agradecimiento recibido: 729 veces

Re: Le coffret de Tolède (Louis Feuillade, 1914) WEBRip VOSE

Mensaje por Angeluco » 08 Abr 2020, 15:28

Muchas gracias,Lobo y Eddie.

Avatar de Usuario
tonapar1
 
Mensajes: 4613
Registrado: 16 Oct 2012, 20:19
Agradecido : 1122 veces
Agradecimiento recibido: 1418 veces

Re: Le coffret de Tolède (Louis Feuillade, 1914) WEBRip VOSE

Mensaje por tonapar1 » 08 Abr 2020, 15:43

Muchas gracias por el ripeo y los subs a lobo lopez y eddie constanti. Un saludo a ambos.

Responder

Volver a “Cine Mudo”