Página 1 de 1

Pour le pays (1915) WEBRip VOSE

Publicado: 08 Dic 2019, 22:24
por Lobo López

CICLO “TESOROS PATHÉ-GAUMONT” (30)


POUR LE PAYS

Imagen
Imagen
Imagen

Título original: Pour le pays
Director: Anónimo
Reparto: Cécile Guyon
Año: 1915
País: Francia
Duración: 51 min.
Producción: Impérium Film
Género: Bélica


Argumento: En vísperas de la Primera Guerra Mundial, un científico que ha descubierto un explosivo más potente que cualquier otro conocido hasta entonces, tiene que solicitar fondos a un banquero alemán. Éste verá la ocasión de hacerse con la fórmula de dicho explosivo para su país y, al mismo tiempo, conseguir por la fuerza los favores de la hija del científico.




ImagenImagen
ImagenImagen
ImagenImagen
ImagenImagen

Datos Técnicos:
Spoiler:
Format : MPEG-4
Format profile : Base Media
Codec ID : isom (isom/iso2/avc1/mp41)
File size : 287 MiB
Duration : 50 min
Overall bit rate mode : Variable
Overall bit rate : 791 kb/s
Writing application : Lavf54.63.104

Video
ID : 1
Format : AVC
Format/Info : Advanced Video Codec
Format profile : High@L3
Format settings, CABAC : Yes
Format settings, ReFrames : 4 frames
Codec ID : avc1
Codec ID/Info : Advanced Video Coding
Duration : 50 min
Bit rate : 695 kb/s
Width : 640 pixels
Height : 486 pixels
Display aspect ratio : 4:3
Original display aspect rat : 4:3
Frame rate mode : Constant
Frame rate : 25.000 FPS
Color space : YUV
Chroma subsampling : 4:2:0
Bit depth : 8 bits
Scan type : Progressive
Bits/(Pixel*Frame) : 0.089
Stream size : 250 MiB (87%)
Writing library : x264 core 133
Encoding settings : cabac=1 / ref=3 / deblock=1:0:0 / analyse=0x3:0x113 / me=hex / subme=7 / psy=1 / psy_rd=1.00:0.00 / mixed_ref=1 / me_range=16 / chroma_me=1 / trellis=1 / 8x8dct=1 / cqm=0 / deadzone=21,11 / fast_pskip=1 / chroma_qp_offset=-2 / threads=6 / lookahead_threads=1 / sliced_threads=0 / nr=0 / decimate=1 / interlaced=0 / bluray_compat=0 / constrained_intra=0 / bframes=3 / b_pyramid=2 / b_adapt=1 / b_bias=0 / direct=1 / weightb=1 / open_gop=0 / weightp=2 / keyint=250 / keyint_min=25 / scenecut=40 / intra_refresh=0 / rc_lookahead=40 / rc=abr / mbtree=1 / bitrate=695 / ratetol=1.0 / qcomp=0.60 / qpmin=0 / qpmax=69 / qpstep=4 / ip_ratio=1.40 / aq=1:1.00
Language : English

Audio
ID : 2
Format : AAC
Format/Info : Advanced Audio Codec
Format profile : LC
Codec ID : 40
Duration : 50 min
Bit rate mode : Variable
Bit rate : 96.0 kb/s
Channel(s) : 2 channels
Channel positions : Front: L R
Sampling rate : 44.1 kHz
Frame rate : 43.066 FPS (1024 spf)
Compression mode : Lossy
Stream size : 34.4 MiB (12%)
Language : English
Default : Yes
Alternate group : 1


:flecha: eD2K link Pour le pays 1915.mp4 [287.10 Mb] 

Subtítulos en español de Eddie Constanti:

https://www.subdivx.com/X6XNTgxNTI3X-po ... -1915.html



Comentario de Eddie Constanti:

Típico producto prebélico y en su segunda parte ya en plena contienda, donde se dan elementos propios de ese género: el malvado banquero es, por supuesto, alemán, como un anticipo de los horrores que haría pasar su país a buena parte de Europa. No falta tampoco el toque heroico final con ribetes de claro patriotismo. La dirigió un realizador anónimo y el único actor/actriz conocido es Cécile Guyon, a quien vimos en "La glu" o "Gribiche".

Ágil planteamiento e interpretación correcta, cuenta con un final emocionante en el cual cada uno recibirá su merecido: los buenos, laureles heroicos; los malos, el máximo castigo. Y para los que gustan de los juegos de azar, proponemos aventurar quién pudo dirigir la cinta.






:hi:

Re: Pour le pays (1915) WEBRip VOSE

Publicado: 08 Dic 2019, 22:34
por Eddie Constanti
Gracias, Lobo.

Re: Pour le pays (1915) WEBRip VOSE

Publicado: 08 Dic 2019, 22:36
por Graveland
Muchas gracias, Lobo y Eddie.

Re: Pour le pays (1915) WEBRip VOSE

Publicado: 08 Dic 2019, 23:52
por Monsieur Lange
¡Jesús, otra peli más sobre o alrededor de la Gran Guerra!
Sois increibles.
Muchas gracias chicos.

Re: Pour le pays (1915) WEBRip VOSE

Publicado: 08 Dic 2019, 23:54
por Prudencio
Muchas gracias, Lobo y Eddie. :hi:

Re: Pour le pays (1915) WEBRip VOSE

Publicado: 09 Dic 2019, 09:09
por Angeluco
Muchas gracias,Lobo y Eddie.

Re: Pour le pays (1915) WEBRip VOSE

Publicado: 09 Dic 2019, 10:11
por jail
Gracias, Lobo y Eddie.

Re: Pour le pays (1915) WEBRip VOSE

Publicado: 09 Dic 2019, 16:28
por sete
Muchas gracias, Eddie Constanti y Lobo López.
:hi:

Re: Pour le pays (1915) WEBRip VOSE

Publicado: 10 Dic 2019, 00:12
por tonapar1
Muchas gracias por el ripeo y los subs a lobo lopez y a eddie constanti. Un saludo a ambos.

Re: Pour le pays (1915) WEBRip VOSE

Publicado: 15 Dic 2019, 16:54
por yojimbo
Muchas gracias, Lobo López y Eddie Constanti.