Paris' Girls (Henry Roussel, 1929) WEBRip VOSE

Puntuación
Sin
puntuar

París girls

El maravilloso mundo del cine silente.
Hasta 1936 inclusive (<= 1936)

Moderador: Monsieur Lange

Responder
Avatar de Usuario
Lobo López
 
Mensajes: 1408
Registrado: 16 Oct 2012, 15:07
Ubicación: Cuenca
Agradecido : 2485 veces
Agradecimiento recibido: 3328 veces
Contactar:

Francia Paris' Girls (Henry Roussel, 1929) WEBRip VOSE

Mensaje por Lobo López » 07 Dic 2019, 15:06


CICLO “TESOROS PATHÉ-GAUMONT” (29)


PARIS' GIRLS

Imagen
Imagen
Imagen

Título original: Paris' Girls
Título del estreno en España: París girls
Director: Henry Roussel
Reparto: Suzy Vernon, Danièle Parola, Fernand Fabre, Cyril De Ramsay, Jeanne Marie-Laurent, Sylviane de Castillo, Raymond Narlay, Norman Selby, Paul Valbret, Esther Kiss, Jeanne Brindeau
Guion: Henry Roussel
Fotografía: Raoul Aubourdier, Fédote Bourgasoff
Año: 1929
País: Francia
Duración: 137 min.
Producción: Société des Cinéromans / Films de France
Género: Comedia | Drama


Argumento: Marguerite Rodríguez, huérfana criada con la baronesa de Ryons, es la oveja negra de su noble familia. Cuando se cansa de la intolerancia de su entorno, decide irse y hacer lo que realmente le gusta: bailar en el teatro de variedades con el grupo de las París Girls. Sin embargo, el amor de un joven diplomático, de la misma familia de Ryons, llamará a su puerta.




ImagenImagen
ImagenImagen
ImagenImagen
ImagenImagen

Datos Técnicos:
Spoiler:
Format : MPEG-4
Format profile : Base Media
Codec ID : isom (isom/iso2/avc1/mp41)
File size : 792 MiB
Duration : 2 h 16 min
Overall bit rate : 809 kb/s
Writing application : Lavf54.63.104

Video
ID : 1
Format : AVC
Format/Info : Advanced Video Codec
Format profile : High@L3
Format settings, CABAC : Yes
Format settings, ReFrames : 4 frames
Codec ID : avc1
Codec ID/Info : Advanced Video Coding
Duration : 2 h 16 min
Bit rate : 702 kb/s
Width : 640 pixels
Height : 480 pixels
Display aspect ratio : 4:3
Frame rate mode : Constant
Frame rate : 25.000 FPS
Color space : YUV
Chroma subsampling : 4:2:0
Bit depth : 8 bits
Scan type : Progressive
Bits/(Pixel*Frame) : 0.091
Stream size : 692 MiB (87%)
Writing library : x264 core 133
Encoding settings : cabac=1 / ref=3 / deblock=1:0:0 / analyse=0x3:0x113 / me=hex / subme=7 / psy=1 / psy_rd=1.00:0.00 / mixed_ref=1 / me_range=16 / chroma_me=1 / trellis=1 / 8x8dct=1 / cqm=0 / deadzone=21,11 / fast_pskip=1 / chroma_qp_offset=-2 / threads=6 / lookahead_threads=1 / sliced_threads=0 / nr=0 / decimate=1 / interlaced=0 / bluray_compat=0 / constrained_intra=0 / bframes=3 / b_pyramid=2 / b_adapt=1 / b_bias=0 / direct=1 / weightb=1 / open_gop=0 / weightp=2 / keyint=250 / keyint_min=25 / scenecut=40 / intra_refresh=0 / rc_lookahead=40 / rc=abr / mbtree=1 / bitrate=702 / ratetol=1.0 / qcomp=0.60 / qpmin=0 / qpmax=69 / qpstep=4 / ip_ratio=1.40 / aq=1:1.00

Audio
ID : 2
Format : AAC
Format/Info : Advanced Audio Codec
Format profile : LC
Codec ID : 40
Duration : 2 h 16 min
Bit rate mode : Constant
Bit rate : 96.0 kb/s
Channel(s) : 2 channels
Channel positions : Front: L R
Sampling rate : 44.1 kHz
Frame rate : 43.066 FPS (1024 spf)
Compression mode : Lossy
Stream size : 94.0 MiB (12%)
Default : Yes
Alternate group : 1


:flecha: eD2K link Paris Girls 1929.mp4 [792.27 Mb] 

Subtítulos en español de Eddie Constanti:

https://www.subdivx.com/X6XNTgxNDUwX-pa ... -1929.html



Comentario de Eddie Constanti:

El tema no es nuevo, pero está realizado con gusto: el esnobismo de un grupo de la nobleza que ve con mala cara que uno de sus integrantes se case con una corista que, para más inri, es huérfana. Esa misma familia acusará a Marguerite cuando se produzca un episodio escandaloso del que la joven es ajena, pero que servirá para poner a prueba a cada uno de los personajes integrantes de la trama.

Henry Rousell escribió el guión y dirigió la cinta. Con buenas escenas en el music-hall y correcta dirección artística, en su fase final tiene sus mejores momentos y también los más tensos, en los cuales la gente se quitará la careta y saldrán a relucir los tics más negativos de cada uno. No falta tampoco la celosa de turno, que maquinará una trama en contra de Marguerite que a punto está de acabar trágicamente.

Suzy Vernon asume con acierto su papel protagonista. Cabe destacar la escena en que se toma la revancha contra su envidiosa rival, nada menos que con espadas incluidas. Una película de las últimas del silente francés que tiene bastantes virtudes como para recomendar su visionado.






:hi:

Avatar de Usuario
Eddie Constanti
 
Mensajes: 4672
Registrado: 05 Ago 2013, 21:31
Ubicación: Vallès Oriental
Agradecido : 1220 veces
Agradecimiento recibido: 3528 veces

Re: Paris' Girls (Henry Roussel, 1929) WEBRip VOSE

Mensaje por Eddie Constanti » 07 Dic 2019, 15:36

Gracias, Lobo.

Avatar de Usuario
Monsieur Lange
 
Mensajes: 4359
Registrado: 13 Sep 2012, 19:39
Ubicación: Cruzando las dunas
Agradecido : 1121 veces
Agradecimiento recibido: 1375 veces

Re: Paris' Girls (Henry Roussel, 1929) WEBRip VOSE

Mensaje por Monsieur Lange » 07 Dic 2019, 15:49

¡Hale!...
¡Alegría pa'l cuerpo!

Gracias chicos. :aplauso: :aplauso:
"Adaptar no es recalentar la comida"
Alain Resnais

jail
 
Mensajes: 6249
Registrado: 18 Oct 2012, 15:34
Agradecido : 6842 veces
Agradecimiento recibido: 1963 veces

Re: Paris' Girls (Henry Roussel, 1929) WEBRip VOSE

Mensaje por jail » 07 Dic 2019, 16:03

Gracias, Lobo y Eddie.

Avatar de Usuario
sete
 
Mensajes: 4264
Registrado: 22 Dic 2012, 16:10
Agradecido : 167 veces
Agradecimiento recibido: 1237 veces

Re: Paris' Girls (Henry Roussel, 1929) WEBRip VOSE

Mensaje por sete » 07 Dic 2019, 17:52

Muchas gracias, Eddie Constanti y Lobo López.
:hi:
Este mundo está traicionando a la vida.
José Luis Sampedro

Avatar de Usuario
Graveland
 
Mensajes: 3409
Registrado: 22 Nov 2012, 15:30
Agradecido : 1936 veces
Agradecimiento recibido: 3503 veces

Re: Paris' Girls (Henry Roussel, 1929) WEBRip VOSE

Mensaje por Graveland » 07 Dic 2019, 18:23

Muchas gracias, Eddie & Lobo.

Angeluco
 
Mensajes: 1402
Registrado: 25 Nov 2012, 12:41
Agradecido : 1665 veces
Agradecimiento recibido: 610 veces

Re: Paris' Girls (Henry Roussel, 1929) WEBRip VOSE

Mensaje por Angeluco » 07 Dic 2019, 18:26

Muchas gracias,Lobo y Eddie.

bolzato
 
Mensajes: 151
Registrado: 05 Ene 2013, 08:05
Agradecido : 1569 veces
Agradecimiento recibido: 41 veces

Re: Paris' Girls (Henry Roussel, 1929) WEBRip VOSE

Mensaje por bolzato » 08 Dic 2019, 09:52

Muchas gracias, Lobo López y Eddie Constanti.

Avatar de Usuario
gatatitania
 
Mensajes: 4529
Registrado: 16 Oct 2012, 18:27
Ubicación: Gatatitania es un gato hambriento, superviviente del planeta gatatitania...
Agradecido : 2380 veces
Agradecimiento recibido: 1333 veces

Re: Paris' Girls (Henry Roussel, 1929) WEBRip VOSE

Mensaje por gatatitania » 08 Dic 2019, 12:23

¡Qué buena pinta! ¡Gracias! :aplauso: :aplauso: :aplauso:

Avatar de Usuario
Prudencio
 
Mensajes: 4394
Registrado: 16 Oct 2012, 18:46
Agradecido : 4866 veces
Agradecimiento recibido: 1718 veces

Re: Paris' Girls (Henry Roussel, 1929) WEBRip VOSE

Mensaje por Prudencio » 08 Dic 2019, 20:43

Muchas gracias, Lobo y Eddie. :hi:

Responder

Volver a “Cine Mudo”