Engelein (Urban Gad, 1914) WebRip VOSE

Puntuación
Sin
puntuar
El maravilloso mundo del cine silente.
Hasta 1936 inclusive (<= 1936)

Moderador: Monsieur Lange

Responder
Avatar de Usuario
fifole
 
Mensajes: 3170
Registrado: 17 Oct 2012, 20:47
Agradecido : 3773 veces
Agradecimiento recibido: 6414 veces

Alemania Engelein (Urban Gad, 1914) WebRip VOSE

Mensaje por fifole » 17 Ene 2018, 07:57

ENGELEIN
(1914)


Imagen
Imagen

IMDb


Producción
Projektions-AG Union (PAGU)

Director
Urban Gad

Guión
Urban Gad

Intérpretes
Asta Nielsen
Alfred Kuehne
Max Landa
Fred Immler
Bruno Kastner
Hanns Kräly
Adele Reuter-Eichberg
Martin Wolff
Erner Huebsch

Género
Comedia


El viudo y rico Peter Schneider llega a Europa, procedente de Chicago, con el fin de adoptar a su sobrina Jesta, una huérfana a quien quiere designar como su heredera. La niña en realidad es una joven de dieciocho años, pero debe ocultar su verdadera edad, por una parte para ocultar que es una hija extramatrimonial y por otra para no ofender el sentido moral de su tío (y para no arriesgar la herencia). Pero el engaño se vuelve cada vez más difícil de sostener, debido a que la joven comienza a enamorarse de su pariente...

Subtítulos obra de toerless, quien muy amablemente me envió la película.


Imagen


Datos técnicos:

Código: Seleccionar todo

General
Complete name               : Engelein (Urban Gad 1914).avi
Format                      : AVI
Format/Info                 : Audio Video Interleave
File size                   : 412 MiB
Duration                    : 55 min 32 s
Overall bit rate            : 1 037 kb/s
Writing library             : VirtualDub build 32661/release

Video
ID                          : 0
Format                      : MPEG-4 Visual
Format profile              : Advanced Simple@L5
Format settings, BVOP       : 2
Format settings, QPel       : No
Format settings, GMC        : No warppoints
Format settings, Matrix     : Default (H.263)
Muxing mode                 : Packed bitstream
Codec ID                    : XVID
Codec ID/Hint               : XviD
Duration                    : 55 min 32 s
Bit rate                    : 899 kb/s
Width                       : 642 pixels
Height                      : 480 pixels
Display aspect ratio        : 4:3
Frame rate                  : 25.000 FPS
Color space                 : YUV
Chroma subsampling          : 4:2:0
Bit depth                   : 8 bits
Scan type                   : Progressive
Compression mode            : Lossy
Bits/(Pixel*Frame)          : 0.117
Stream size                 : 357 MiB (87%)
Writing library             : XviD 64

Audio
ID                          : 1
Format                      : MPEG Audio
Format version              : Version 1
Format profile              : Layer 3
Mode                        : Joint stereo
Mode extension              : MS Stereo
Codec ID                    : 55
Codec ID/Hint               : MP3
Duration                    : 55 min 31 s
Bit rate mode               : Constant
Bit rate                    : 128 kb/s
Channel(s)                  : 2 channels
Sampling rate               : 44.1 kHz
Compression mode            : Lossy
Stream size                 : 50.8 MiB (12%)
Alignment                   : Split accross interleaves
Interleave, duration        : 40  ms (1.00 video frame)
Interleave, preload duratio : 500  ms
Writing library             : LAME3.98r
Encoding settings           : -m j -V 4 -q 3 -lowpass 17 -b 128


Imagen
Imagen
Imagen
Imagen


eD2K link Engelein (Urban Gad 1914).avi [411.84 Mb] 

Subtítulos en español obra de toerless:
https://subscene.com/subtitles/engelein/spanish/1700084

jail
 
Mensajes: 4284
Registrado: 18 Oct 2012, 15:34
Agradecido : 4747 veces
Agradecimiento recibido: 938 veces

Re: Engelein (Urban Gad, 1914) WebRip VOSE

Mensaje por jail » 17 Ene 2018, 09:24

Gracias, fifole y toerless.

Angeluco
 
Mensajes: 861
Registrado: 25 Nov 2012, 12:41
Agradecido : 995 veces
Agradecimiento recibido: 157 veces

Re: Engelein (Urban Gad, 1914) WebRip VOSE

Mensaje por Angeluco » 17 Ene 2018, 16:17

Muchas gracias,Fífole y Toerless.

Avatar de Usuario
gatatitania
 
Mensajes: 3418
Registrado: 16 Oct 2012, 18:27
Ubicación: Gatatitania es un gato hambriento, superviviente del planeta gatatitania...
Agradecido : 1900 veces
Agradecimiento recibido: 654 veces

Re: Engelein (Urban Gad, 1914) WebRip VOSE

Mensaje por gatatitania » 17 Ene 2018, 16:45

¡Gracias a los dos! :aplauso: :aplauso: :aplauso:
Cual plaga de langosta

Avatar de Usuario
Monsieur Lange
 
Mensajes: 3026
Registrado: 13 Sep 2012, 19:39
Ubicación: Cruzando las dunas
Agradecido : 144 veces
Agradecimiento recibido: 459 veces

Re: Engelein (Urban Gad, 1914) WebRip VOSE

Mensaje por Monsieur Lange » 17 Ene 2018, 18:19

fifole y toerless, muchas gracias por vuestro aporte. :hi:
"Adaptar no es recalentar la comida"
Alain Resnais

Avatar de Usuario
Prudencio
 
Mensajes: 3118
Registrado: 16 Oct 2012, 18:46
Agradecido : 3060 veces
Agradecimiento recibido: 796 veces

Re: Engelein (Urban Gad, 1914) WebRip VOSE

Mensaje por Prudencio » 17 Ene 2018, 18:31

Muchas gracias, fifole y toerless. :hi:

Avatar de Usuario
Arthur James Hamp
 
Mensajes: 946
Registrado: 06 May 2016, 11:47
Agradecido : 1197 veces
Agradecimiento recibido: 1573 veces

Re: Engelein (Urban Gad, 1914) WebRip VOSE

Mensaje por Arthur James Hamp » 17 Ene 2018, 18:43

Muchas gracias, fifole y toerless. :genial: :aplauso: :aplauso:
"Cuando tu cabeza dice una cosa y toda tu vida dice la otra, la cabeza siempre pierde" (Cayo Largo)

Avatar de Usuario
yojimbo
 
Mensajes: 6921
Registrado: 18 Oct 2012, 14:25
Agradecido : 6077 veces
Agradecimiento recibido: 1174 veces

Re: Engelein (Urban Gad, 1914) WebRip VOSE

Mensaje por yojimbo » 17 Ene 2018, 20:31

Muchas gracias, toerless y fifole.

Responder

Volver a “Cine Mudo”