The Lost World (Harry O. Hoyt, 1925) BDRip VOSE

Puntuación
6/10
3 votos

El mundo perdido

El maravilloso mundo del cine silente.
Hasta 1936 inclusive (<= 1936)

Moderador: Monsieur Lange

Responder
Avatar de Usuario
fifole
 
Mensajes: 3170
Registrado: 17 Oct 2012, 20:47
Agradecido : 3773 veces
Agradecimiento recibido: 6414 veces

Estados Unidos The Lost World (Harry O. Hoyt, 1925) BDRip VOSE

Mensaje por fifole » 16 Ene 2018, 20:19

EL MUNDO PERDIDO
(1925)


Imagen

IMDb


Producción
First National Pictures

Director
Harry O. Hoyt

Guión
Marion Fairfax

Argumento
La novela de
Arthur Conan Doyle

Intérpretes
Bessie Love
Lewis Stone
Wallace Beery
Lloyd Hughes
Alma Bennett
Arthur Hoyt
Margaret McWade,
Bull Montana


Una expedición dirigida por el profesor George Edward Challenge, se adentra en lo más profundo de la selva, con el objetivo de localizar un lugar donde supuestamente aún quedaría una colonia de animales prehistóricos que habría sobrevivido al paso del tiempo. La expedición tiene éxito, y el profesor decide llevar un ejemplar de brontosaurio a la ciudad de Londres. No obstante al llegar al puerto de la ciudad y a causa de un accidente fortuito, el animal queda en libertad, sembrando el pánico allí por donde pasa.

Ripeo descargado de uloz.to. Subtítulos de Eddie Constanti.



Imagen


Eddie Constanti escribió:
Ante todo, si pensáis que "ya tenéis" esta película, leed, por favor, los cambios que aporta la restauración que hoy os presentamos:

-- Blu-Ray.
-- Quince minutos más de metraje (se ha recuperado entre once copias distintas).
-- Virados de color.
-- Música compuesta ex profeso por Robert Israel.
-- Calidad digital inmejorable.
-- Subtítulos redactados de nuevo con los cambios de sincronización y las correcciones pertinentes.

Es decir, se trata de "otra" película, aún siendo la misma. Una maravilla visual.

La historia proviene de un relato de sir Arthur Conan Doyle (él mismo la presenta al inicio de la cinta), que escribió tras su serie dedicada a Sherlock Holmes. Un científico jura que ha visto animales prehistóricos vivos al regresar de una expedición a la Amazonia y como nadie le cree, se organiza otra expedición para comprobarlo. Una vez allí, no sólo quedará claro que esos animales existen, sino que a ello se añadirá el encuentro de una rara especie de eslabón perdido entre el hombre y el mono, y también una intriga amorosa entre dos rivales por la misma mujer.

Majestuosa, con unos efectos especiales sorprendentes para su año de realización y con añadidos humorísticos que nos apartan un poco de la sobrecogedora trama central, es un portento asistir a la lucha a muerte entre pterodáctylos y dinosaurios bajo un fondo virado de color azul. Cuevas inhóspitas, abismos insondables, encuentros sorpresivos y un gran incendio como guinda final, los alicientes de la película no decaen ni un instante; a ello ayuda, también, la excelente interpretación de un enérgico Wallace Berry, la elegancia de un sobrio Lewis Stone y la fragilidad de una bella Bessie Love.

Existe, también, una lejana similitud con la posterior "King Kong", cuando los científicos se llevan a un pterodáctylo de su hábitat nativo para mostrarlo en Inglaterra. Una restauración, pues, ideal para ver con los hijos de corta edad y hacerles entrar, así, en este mundo del cine que nos enamora. Aunque será difícil saber quiénes la disfrutarán más, si los padres o los retoños...

El mundo perdido es buen cine de aventuras pero no llega a ser la gran película que pudo haber sido: el quietismo de la cámara resulta a veces excesivo y se echa en falta ese dinamismo y esa contagiosa alegría creativa que están continuamente presentes tanto en El ladrón de Bagdad de Walsh y Fairbanks como en el futuro King Kong. En 1960, el productor y director Irwin Allen se encargó de realizar una nueva adaptación de la novela de Conan Doyle, con Claude Rains en el papel de Challenger, David Hedison en el de Malone y Richard Haydn en el de Summerlee (no faltó tampoco la presencia femenina: Jill St. John), pero a pesar de contar con mayores medios, con el trabajo del veterano Willis O'Brien y con la ayuda del scope y el color, el resultado se situó muy por debajo no ya del original literario sino también del simpático film de Harry O. Hoyt.
José María Latorre
(La vuelta al mundo en 80 aventuras)

Imagen


Datos técnicos:

Código: Seleccionar todo

General
Complete name               : The.Lost.World.1925.720p.BluRay.x264-x0r.mkv
Format                      : Matroska
Format version              : Version 4 / Version 2
File size                   : 2.33 GiB
Duration                    : 1 h 44 min
Overall bit rate            : 3 201 kb/s
Movie name                  : The.Lost.World.1925.720p.BluRay.x264-x0r
Encoded date                : UTC 2017-09-17 12:34:47
Writing application         : mkvmerge v7.7.0 ('Six Voices') 64bit built on Mar  1 2015 01:50:05
Writing library             : libebml v1.3.1 + libmatroska v1.4.2

Video
ID                          : 1
Format                      : AVC
Format/Info                 : Advanced Video Codec
Format profile              : High@L4
Format settings, CABAC      : Yes
Format settings, RefFrames  : 8 frames
Codec ID                    : V_MPEG4/ISO/AVC
Duration                    : 1 h 44 min
Bit rate                    : 2 560 kb/s
Width                       : 1 280 pixels
Height                      : 720 pixels
Display aspect ratio        : 16:9
Frame rate mode             : Constant
Frame rate                  : 23.976 FPS
Color space                 : YUV
Chroma subsampling          : 4:2:0
Bit depth                   : 8 bits
Scan type                   : Progressive
Bits/(Pixel*Frame)          : 0.116
Stream size                 : 1.86 GiB (80%)
Writing library             : x264 core 142 r2389 956c8d8
Encoding settings           : cabac=1 / ref=8 / deblock=1:-2:-2 / analyse=0x3:0x113 / me=umh / subme=9 / psy=1 / psy_rd=1.00:0.25 / mixed_ref=0 / me_range=32 / chroma_me=1 / trellis=2 / 8x8dct=1 / cqm=0 / deadzone=6,6 / fast_pskip=0 / chroma_qp_offset=-4 / threads=12 / lookahead_threads=1 / sliced_threads=0 / nr=0 / decimate=1 / interlaced=0 / bluray_compat=0 / constrained_intra=0 / bframes=4 / b_pyramid=2 / b_adapt=2 / b_bias=0 / direct=3 / weightb=1 / open_gop=0 / weightp=2 / keyint=240 / keyint_min=24 / scenecut=40 / intra_refresh=0 / rc_lookahead=60 / rc=2pass / mbtree=1 / bitrate=2560 / ratetol=1.0 / qcomp=0.00 / qpmin=0 / qpmax=69 / qpstep=4 / cplxblur=20.0 / qblur=0.5 / vbv_maxrate=20000 / vbv_bufsize=25000 / nal_hrd=none / filler=0 / ip_ratio=1.10 / aq=1:1.00
Default                     : Yes
Forced                      : No
Color range                 : Limited
Color primaries             : BT.709
Transfer characteristics    : BT.709
Matrix coefficients         : BT.709

Audio #1
ID                          : 2
Format                      : AC-3
Format/Info                 : Audio Coding 3
Format settings, Endianness : Big
Codec ID                    : A_AC3
Duration                    : 1 h 44 min
Bit rate mode               : Constant
Bit rate                    : 192 kb/s
Channel(s)                  : 2 channels
Channel positions           : Front: L R
Sampling rate               : 48.0 kHz
Frame rate                  : 31.250 FPS (1536 SPF)
Bit depth                   : 16 bits
Compression mode            : Lossy
Delay relative to video     : -5 ms
Stream size                 : 143 MiB (6%)
Title                       : Stereo
Language                    : English
Service kind                : Complete Main
Default                     : Yes
Forced                      : No

Audio #2
ID                          : 3
Format                      : AC-3
Format/Info                 : Audio Coding 3
Format settings, Endianness : Big
Codec ID                    : A_AC3
Duration                    : 1 h 44 min
Bit rate mode               : Constant
Bit rate                    : 448 kb/s
Channel(s)                  : 2 channels
Channel positions           : Front: L R
Sampling rate               : 48.0 kHz
Frame rate                  : 31.250 FPS (1536 SPF)
Bit depth                   : 16 bits
Compression mode            : Lossy
Stream size                 : 334 MiB (14%)
Title                       : Commentary
Language                    : English
Service kind                : Complete Main
Default                     : No
Forced                      : No

Menu
00:00:00.000                : :Chapter 1
00:06:49.284                : :Chapter 2
00:15:12.662                : :Chapter 3
00:27:13.841                : :Chapter 4
00:38:29.057                : :Chapter 5
00:46:38.170                : :Chapter 6
00:52:50.626                : :Chapter 7
01:00:23.203                : :Chapter 8
01:10:55.877                : :Chapter 9
01:19:16.919                : :Chapter 10
01:26:08.455                : :Chapter 11
01:31:58.388                : :Chapter 12
01:40:40.284                : :Chapter 13


Imagen
Imagen
Imagen
Imagen
Imagen
Imagen


eD2K link The.Lost.World.1925.720p.BluRay.x264-x0r.mkv [2.33 Gb] 

Subtítulos en español obra de Eddie Constanti:
https://mega.nz/#!BrxHRDyQ!xBStbR5PXLWo ... 2rVoDOEpoI


jaumeroc
 
Mensajes: 10
Registrado: 29 Nov 2017, 16:49
Agradecido : 17 veces
Agradecimiento recibido: 3 veces

Re: The Lost World (Harry O. Hoyt, 1925) BDRip VOSE

Mensaje por jaumeroc » 16 Ene 2018, 20:22

Muchas gracias.

Avatar de Usuario
Eddie Constanti
 
Mensajes: 3521
Registrado: 05 Ago 2013, 21:31
Ubicación: Vallès Oriental
Agradecido : 1121 veces
Agradecimiento recibido: 1833 veces

Re: The Lost World (Harry O. Hoyt, 1925) BDRip VOSE

Mensaje por Eddie Constanti » 16 Ene 2018, 20:23

Gracias, Fifole. Como decíamos ayer... :)

Avatar de Usuario
Prudencio
 
Mensajes: 3118
Registrado: 16 Oct 2012, 18:46
Agradecido : 3060 veces
Agradecimiento recibido: 796 veces

Re: The Lost World (Harry O. Hoyt, 1925) BDRip VOSE

Mensaje por Prudencio » 16 Ene 2018, 20:55

Me alegro del regreso del "Dúo Dinámico".
Muchas gracias, Fifole y Eddie. :hi:

jail
 
Mensajes: 4284
Registrado: 18 Oct 2012, 15:34
Agradecido : 4747 veces
Agradecimiento recibido: 938 veces

Re: The Lost World (Harry O. Hoyt, 1925) BDRip VOSE

Mensaje por jail » 16 Ene 2018, 20:56

Gracias, fifole y Eddie (Se te añoraba).
Y a la gente de uloz.to.

Avatar de Usuario
sete
 
Mensajes: 2589
Registrado: 22 Dic 2012, 16:10
Agradecido : 1 vez
Agradecimiento recibido: 428 veces

Re: The Lost World (Harry O. Hoyt, 1925) BDRip VOSE

Mensaje por sete » 16 Ene 2018, 23:21

Muchas gracias, fifole y Eddie Constanti.
:hi:
Este mundo está traicionando a la vida.
José Luis Sampedro

ciberyago
 
Mensajes: 1853
Registrado: 20 Oct 2012, 07:26
Agradecimiento recibido: 151 veces

Re: The Lost World (Harry O. Hoyt, 1925) BDRip VOSE

Mensaje por ciberyago » 17 Ene 2018, 05:42

Muchas gracias!

ciberyago
 
Mensajes: 1853
Registrado: 20 Oct 2012, 07:26
Agradecimiento recibido: 151 veces

Re: The Lost World (Harry O. Hoyt, 1925) BDRip VOSE

Mensaje por ciberyago » 17 Ene 2018, 05:44

¿Hay posibilidad de emulizar estos subtítulos? Mi retrógrada personalidad me hace rechazar todas las registraciones y mega parece haber adoptado esta política. Gracias, muchas gracias, en cualquier caso

jail
 
Mensajes: 4284
Registrado: 18 Oct 2012, 15:34
Agradecido : 4747 veces
Agradecimiento recibido: 938 veces

Re: The Lost World (Harry O. Hoyt, 1925) BDRip VOSE

Mensaje por jail » 17 Ene 2018, 09:21


james mason
 
Mensajes: 849
Registrado: 03 Oct 2012, 11:31
Ubicación: En algún lugar de Extremadura
Agradecimiento recibido: 240 veces

Re: The Lost World (Harry O. Hoyt, 1925) BDRip VOSE

Mensaje por james mason » 17 Ene 2018, 13:16

Eddie Constanti escribió:Gracias, Fifole. Como decíamos ayer... :)
Me alegra verte de nuevo por aquí! :)

Y muchas gracias a los dos por esta recuperación! :aplauso: :aplauso: :aplauso:

:hi:

Responder

Volver a “Cine Mudo”