Página 1 de 2

Balletdanserinden (August Blom, 1911) WebRip VOSE

Publicado: 10 Ene 2018, 22:49
por fifole
BALLETDANSERINDEN
(1911)


Imagen

IMDb


Producción
Nordisk Film

Director
August Blom

Guión
Alfred Kjerulf

Intérpretes
Asta Nielsen
Valdemar Psilander
Johannes Poulsen
Valdemar Møller
Karen Lund
Emilie Sannom


Camille es una chica guapa que tiene más de un trabajo en el mundo de las artes (ella es una ocasional actriz y bailarina) y una muy complicada vida amorosa que un conde alemán tratará de explicar. (FILMAFFINITY)

Copia descargada de YouTube. Subtítulos traducidos por un servidor.



Imagen



Datos técnicos:

Código: Seleccionar todo

General
Complete name               : Balletdanserinden (August Blom, 1911).mp4
Format                      : MPEG-4
Format profile              : Base Media
Codec ID                    : isom (isom/iso2/avc1/mp41)
File size                   : 325 MiB
Duration                    : 34 min 37 s
Overall bit rate            : 1 313 kb/s
Writing application         : Lavf55.49.100

Video
ID                          : 1
Format                      : AVC
Format/Info                 : Advanced Video Codec
Format profile              : Main@L3
Format settings, CABAC      : Yes
Format settings, RefFrames  : 3 frames
Codec ID                    : avc1
Codec ID/Info               : Advanced Video Coding
Duration                    : 34 min 37 s
Bit rate                    : 1 052 kb/s
Width                       : 640 pixels
Height                      : 480 pixels
Display aspect ratio        : 4:3
Frame rate mode             : Constant
Frame rate                  : 25.000 FPS
Color space                 : YUV
Chroma subsampling          : 4:2:0
Bit depth                   : 8 bits
Scan type                   : Progressive
Bits/(Pixel*Frame)          : 0.137
Stream size                 : 261 MiB (80%)

Audio
ID                          : 2
Format                      : AAC
Format/Info                 : Advanced Audio Codec
Format profile              : LC
Codec ID                    : 40
Duration                    : 34 min 37 s
Bit rate mode               : Constant
Bit rate                    : 254 kb/s
Channel(s)                  : 2 channels
Channel positions           : Front: L R
Sampling rate               : 44.1 kHz
Frame rate                  : 43.066 FPS (1024 SPF)
Compression mode            : Lossy
Stream size                 : 62.8 MiB (19%)
Default                     : Yes
Alternate group             : 1


Imagen
Imagen
Imagen
Imagen


eD2K link Balletdanserinden (August Blom, 1911).mp4 [325.05 Mb] 

Subtítulos en español:
https://www.subdivx.com/X6XNTM1NzI4

Re: Balletdanserinden (August Blom, 1911) WebRip VOSE

Publicado: 11 Ene 2018, 00:19
por gatatitania
¡Gracias, Fifole! :aplauso: :aplauso: :aplauso:

Re: Balletdanserinden (August Blom, 1911) WebRip VOSE

Publicado: 11 Ene 2018, 00:20
por jail
Gracias, fifole.

Re: Balletdanserinden (August Blom, 1911) WebRip VOSE

Publicado: 11 Ene 2018, 02:12
por Prudencio
Muchas gracias, fifole. :hi:

Re: Balletdanserinden (August Blom, 1911) WebRip VOSE

Publicado: 11 Ene 2018, 11:37
por busterkitton
fifole, arrancas 2018 con todas las papeletas para ser el Man of the Year del mundo cinéfilo :up:

Re: Balletdanserinden (August Blom, 1911) WebRip VOSE

Publicado: 11 Ene 2018, 15:21
por sete
Muchas gracias, fifole.
:hi:

Re: Balletdanserinden (August Blom, 1911) WebRip VOSE

Publicado: 11 Ene 2018, 16:24
por Angeluco
Muchas gracias,Fífole.

Re: Balletdanserinden (August Blom, 1911) WebRip VOSE

Publicado: 13 Ene 2018, 15:38
por Graveland
Muchas gracias, fifole.

Re: Balletdanserinden (August Blom, 1911) WebRip VOSE

Publicado: 16 Ene 2018, 23:17
por asung
Gracias fifole, le la llevo al Galeón

Re: Balletdanserinden (August Blom, 1911) WebRip VOSE

Publicado: 18 Ene 2018, 15:41
por tonapar1
Muchas gracias por el ripeo y los subs a fifole. Un saludo.