Balletdanserinden (August Blom, 1911) WebRip VOSE

Puntuación
5,5/10
2 votos
El maravilloso mundo del cine silente.
Hasta 1936 inclusive (<= 1936)

Moderador: Monsieur Lange

Responder
Avatar de Usuario
fifole
 
Mensajes: 3169
Registrado: 17 Oct 2012, 20:47
Agradecido : 3765 veces
Agradecimiento recibido: 6409 veces

Dinamarca Balletdanserinden (August Blom, 1911) WebRip VOSE

Mensaje por fifole » 10 Ene 2018, 22:49

BALLETDANSERINDEN
(1911)


Imagen

IMDb


Producción
Nordisk Film

Director
August Blom

Guión
Alfred Kjerulf

Intérpretes
Asta Nielsen
Valdemar Psilander
Johannes Poulsen
Valdemar Møller
Karen Lund
Emilie Sannom


Camille es una chica guapa que tiene más de un trabajo en el mundo de las artes (ella es una ocasional actriz y bailarina) y una muy complicada vida amorosa que un conde alemán tratará de explicar. (FILMAFFINITY)

Copia descargada de YouTube. Subtítulos traducidos por un servidor.



Imagen



Datos técnicos:

Código: Seleccionar todo

General
Complete name               : Balletdanserinden (August Blom, 1911).mp4
Format                      : MPEG-4
Format profile              : Base Media
Codec ID                    : isom (isom/iso2/avc1/mp41)
File size                   : 325 MiB
Duration                    : 34 min 37 s
Overall bit rate            : 1 313 kb/s
Writing application         : Lavf55.49.100

Video
ID                          : 1
Format                      : AVC
Format/Info                 : Advanced Video Codec
Format profile              : Main@L3
Format settings, CABAC      : Yes
Format settings, RefFrames  : 3 frames
Codec ID                    : avc1
Codec ID/Info               : Advanced Video Coding
Duration                    : 34 min 37 s
Bit rate                    : 1 052 kb/s
Width                       : 640 pixels
Height                      : 480 pixels
Display aspect ratio        : 4:3
Frame rate mode             : Constant
Frame rate                  : 25.000 FPS
Color space                 : YUV
Chroma subsampling          : 4:2:0
Bit depth                   : 8 bits
Scan type                   : Progressive
Bits/(Pixel*Frame)          : 0.137
Stream size                 : 261 MiB (80%)

Audio
ID                          : 2
Format                      : AAC
Format/Info                 : Advanced Audio Codec
Format profile              : LC
Codec ID                    : 40
Duration                    : 34 min 37 s
Bit rate mode               : Constant
Bit rate                    : 254 kb/s
Channel(s)                  : 2 channels
Channel positions           : Front: L R
Sampling rate               : 44.1 kHz
Frame rate                  : 43.066 FPS (1024 SPF)
Compression mode            : Lossy
Stream size                 : 62.8 MiB (19%)
Default                     : Yes
Alternate group             : 1


Imagen
Imagen
Imagen
Imagen


eD2K link Balletdanserinden (August Blom, 1911).mp4 [325.05 Mb] 

Subtítulos en español:
https://mega.nz/#!QuwDXZ7T!ITrOD6K6AcvA ... wSuzbX8G4E

Avatar de Usuario
gatatitania
 
Mensajes: 3416
Registrado: 16 Oct 2012, 18:27
Ubicación: Gatatitania es un gato hambriento, superviviente del planeta gatatitania...
Agradecido : 1900 veces
Agradecimiento recibido: 653 veces

Re: Balletdanserinden (August Blom, 1911) WebRip VOSE

Mensaje por gatatitania » 11 Ene 2018, 00:19

¡Gracias, Fifole! :aplauso: :aplauso: :aplauso:
Cual plaga de langosta

jail
 
Mensajes: 4284
Registrado: 18 Oct 2012, 15:34
Agradecido : 4747 veces
Agradecimiento recibido: 938 veces

Re: Balletdanserinden (August Blom, 1911) WebRip VOSE

Mensaje por jail » 11 Ene 2018, 00:20

Gracias, fifole.

Avatar de Usuario
Prudencio
 
Mensajes: 3118
Registrado: 16 Oct 2012, 18:46
Agradecido : 3059 veces
Agradecimiento recibido: 796 veces

Re: Balletdanserinden (August Blom, 1911) WebRip VOSE

Mensaje por Prudencio » 11 Ene 2018, 02:12

Muchas gracias, fifole. :hi:

busterkitton
 
Mensajes: 166
Registrado: 17 Oct 2012, 13:45
Agradecido : 47 veces
Agradecimiento recibido: 13 veces

Re: Balletdanserinden (August Blom, 1911) WebRip VOSE

Mensaje por busterkitton » 11 Ene 2018, 11:37

fifole, arrancas 2018 con todas las papeletas para ser el Man of the Year del mundo cinéfilo :up:

Avatar de Usuario
sete
 
Mensajes: 2589
Registrado: 22 Dic 2012, 16:10
Agradecido : 1 vez
Agradecimiento recibido: 428 veces

Re: Balletdanserinden (August Blom, 1911) WebRip VOSE

Mensaje por sete » 11 Ene 2018, 15:21

Muchas gracias, fifole.
:hi:
Este mundo está traicionando a la vida.
José Luis Sampedro

Angeluco
 
Mensajes: 861
Registrado: 25 Nov 2012, 12:41
Agradecido : 993 veces
Agradecimiento recibido: 157 veces

Re: Balletdanserinden (August Blom, 1911) WebRip VOSE

Mensaje por Angeluco » 11 Ene 2018, 16:24

Muchas gracias,Fífole.

Avatar de Usuario
Graveland
 
Mensajes: 2213
Registrado: 22 Nov 2012, 15:30
Agradecido : 370 veces
Agradecimiento recibido: 2290 veces

Re: Balletdanserinden (August Blom, 1911) WebRip VOSE

Mensaje por Graveland » 13 Ene 2018, 15:38

Muchas gracias, fifole.

asung
 
Mensajes: 573
Registrado: 16 Oct 2012, 21:57
Agradecido : 212 veces
Agradecimiento recibido: 68 veces

Re: Balletdanserinden (August Blom, 1911) WebRip VOSE

Mensaje por asung » 16 Ene 2018, 23:17

Gracias fifole, le la llevo al Galeón

Avatar de Usuario
tonapar1
 
Mensajes: 2645
Registrado: 16 Oct 2012, 20:19
Agradecido : 641 veces
Agradecimiento recibido: 452 veces

Re: Balletdanserinden (August Blom, 1911) WebRip VOSE

Mensaje por tonapar1 » 18 Ene 2018, 15:41

Muchas gracias por el ripeo y los subs a fifole. Un saludo.

Responder

Volver a “Cine Mudo”