A Knight in London (Lupu-Pick, 1928) VHSRip

Puntuación
6/10
1 voto
El maravilloso mundo del cine silente.
Hasta 1936 inclusive (<= 1936)

Moderador: Monsieur Lange

Responder
Avatar de Usuario
fifole
 
Mensajes: 3314
Registrado: 17 Oct 2012, 20:47
Agradecido : 4453 veces
Agradecimiento recibido: 7221 veces

Reino Unido A Knight in London (Lupu-Pick, 1928) VHSRip

Mensaje por fifole » 27 Dic 2017, 19:05

UNA NOCHE EN LONDRES
(1928)


Imagen

IMDb


Producción
Lupu Pick Film &
Blattner Picture Corporation

Director
Lupu-Pick

Guión
Herbert Juttke
Georg C. Klaren
Charles Lincoln

Argumento
Horace Tremlett

Intérpretes
Lilian Harvey
Ivy Duke
Robin Irvine
Bernard Nedell
Robert English
Zena Dare
Harry Nestor


Aline Morland pasa una noche en el hotel Majestic en Londres junto con su madre. Viniendo de ducharse, se equivoca de habitación y parte de la noche la pasa con un desconocido. Ella se da cuenta de su error y regresa discretemente al cuarto de su madre. El Príncipe Zalnoff le va a hacer creer que es con él con quien pasó la noche...


Ripeo descargado de Rutracker. La copia procede de la Filmoteca Española y carece de intertítulos. Es una co-producción entre Alemania y Reino Unido.


Esta película fue producida por Blattner Films en 1928. Compraron los Neptune Studios en Elstree con el objetivo de producir películas sonoras utilizando el nuevo procedimiento de cinta magnética. Sin embargo, la empresa tuvo muchos problemas y finalmente entró en quiebra a principios de los años treinta. La película procede de la Filmoteca Española. No tiene títulos de crédito, carece de intertítulos, tiene una pista musical y dura solo 45 minutos. Por lo tanto, uno se pregunta si originalmente era una película sonora donde se ha perdido la banda de sonido. Si es muda, ¿por qué no hay intertítulos? El hecho de que los actores estén pronunciando palabras no es concluyente, ya que esta era la norma para las películas de ese período. Si bien es posible seguir la trama, la falta de intertítulos lo hace un poco pesado, aunque el film está bien fotografiado. Muy interesante como curiosidad histórica.
malcolmgsw
(IMDb)


Imagen



Datos técnicos:

Código: Seleccionar todo

General
Complete name               : A Knight in London_1928.avi
Format                      : AVI
Format/Info                 : Audio Video Interleave
File size                   : 582 MiB
Duration                    : 45 min 47 s
Overall bit rate mode       : Variable
Overall bit rate            : 1 777 kb/s

Video
ID                          : 0
Format                      : MPEG-4 Visual
Format profile              : Simple@L3
Format settings, BVOP       : 2
Format settings, QPel       : No
Format settings, GMC        : No warppoints
Format settings, Matrix     : Default (H.263)
Muxing mode                 : Packed bitstream
Codec ID                    : XVID
Codec ID/Hint               : XviD
Duration                    : 45 min 47 s
Bit rate                    : 1 656 kb/s
Width                       : 640 pixels
Height                      : 496 pixels
Display aspect ratio        : 1.290
Frame rate                  : 25.000 FPS
Color space                 : YUV
Chroma subsampling          : 4:2:0
Bit depth                   : 8 bits
Scan type                   : Progressive
Compression mode            : Lossy
Bits/(Pixel*Frame)          : 0.209
Stream size                 : 543 MiB (93%)
Writing library             : XviD 1.1.2 (UTC 2006-11-01)

Audio
ID                          : 1
Format                      : MPEG Audio
Format version              : Version 1
Format profile              : Layer 3
Mode                        : Joint stereo
Mode extension              : MS Stereo
Codec ID                    : 55
Codec ID/Hint               : MP3
Duration                    : 40 min 29 s
Bit rate mode               : Variable
Bit rate                    : 128 kb/s
Channel(s)                  : 2 channels
Sampling rate               : 48.0 kHz
Compression mode            : Lossy
Stream size                 : 37.1 MiB (6%)
Alignment                   : Split accross interleaves
Interleave, duration        : 600  ms (15.00 video frames)


Imagen
Imagen
Imagen
Imagen
Imagen


eD2K link A Knight in London_1928.avi [581.94 Mb] 

Avatar de Usuario
Arthur James Hamp
 
Mensajes: 1083
Registrado: 06 May 2016, 11:47
Agradecido : 1404 veces
Agradecimiento recibido: 1777 veces

Re: A Knight in London (Lupu-Pick, 1928) VHSRip

Mensaje por Arthur James Hamp » 27 Dic 2017, 19:07

Muchas gracias fifole. :aplauso: :aplauso:
"Cuando tu cabeza dice una cosa y toda tu vida dice la otra, la cabeza siempre pierde" (Cayo Largo)

Avatar de Usuario
Prudencio
 
Mensajes: 3250
Registrado: 16 Oct 2012, 18:46
Agradecido : 3289 veces
Agradecimiento recibido: 904 veces

Re: A Knight in London (Lupu-Pick, 1928) VHSRip

Mensaje por Prudencio » 27 Dic 2017, 19:27

Gracias por traerla, fifole. :hi:

jail
 
Mensajes: 4563
Registrado: 18 Oct 2012, 15:34
Agradecido : 5066 veces
Agradecimiento recibido: 1079 veces

Re: A Knight in London (Lupu-Pick, 1928) VHSRip

Mensaje por jail » 27 Dic 2017, 19:47

Gracias, fifole y a la gente de Rutracker.

james mason
 
Mensajes: 869
Registrado: 03 Oct 2012, 11:31
Ubicación: En algún lugar de Extremadura
Agradecimiento recibido: 255 veces

Re: A Knight in London (Lupu-Pick, 1928) VHSRip

Mensaje por james mason » 27 Dic 2017, 21:00

Muchas gracias, compañero! :hi:

Avatar de Usuario
Monsieur Lange
 
Mensajes: 3129
Registrado: 13 Sep 2012, 19:39
Ubicación: Cruzando las dunas
Agradecido : 176 veces
Agradecimiento recibido: 570 veces

Re: A Knight in London (Lupu-Pick, 1928) VHSRip

Mensaje por Monsieur Lange » 27 Dic 2017, 21:25

Muy interesante fifole. Vamos por ella :hi:
"Adaptar no es recalentar la comida"
Alain Resnais

Angeluco
 
Mensajes: 888
Registrado: 25 Nov 2012, 12:41
Agradecido : 1036 veces
Agradecimiento recibido: 174 veces

Re: A Knight in London (Lupu-Pick, 1928) VHSRip

Mensaje por Angeluco » 28 Dic 2017, 09:09

Muchas gracias,Fífole.

Avatar de Usuario
boettcher
 
Mensajes: 1485
Registrado: 17 Oct 2012, 12:01
Agradecido : 891 veces
Agradecimiento recibido: 230 veces

Re: A Knight in London (Lupu-Pick, 1928) VHSRip

Mensaje por boettcher » 30 Dic 2017, 16:22

Muchas gracias fifole :)

Avatar de Usuario
yojimbo
 
Mensajes: 7161
Registrado: 18 Oct 2012, 14:25
Agradecido : 6426 veces
Agradecimiento recibido: 1287 veces

Re: A Knight in London (Lupu-Pick, 1928) VHSRip

Mensaje por yojimbo » 01 Ene 2018, 23:08

Muchas gracias, fifole.

Responder

Volver a “Cine Mudo”