White Tiger (Tod Browning, 1923) Ver índice

Puntuación
6/10
3 votos

El tigre blanco

El maravilloso mundo del cine silente.
Hasta 1936 inclusive (<= 1936)

Moderador: Monsieur Lange

Responder
Avatar de Usuario
fifole
 
Mensajes: 4959
Registrado: 17 Oct 2012, 20:47
Agradecido : 13308 veces
Agradecimiento recibido: 19068 veces

Estados Unidos White Tiger (Tod Browning, 1923) Ver índice

Mensaje por fifole » 26 Nov 2017, 18:42

Índice de Ripeos: -
VHSRip VOSE publicado por fifole
BDRip 1080p VOSE publicado por fifole

*Nota: Tenga en cuenta la calidad de cada ripeo para hacer la mejor elección. Haga click aquí para más información.
EL TIGRE BLANCO
(1923)


Imagen

IMDb


Producción
Universal Pictures

Director
Tod Browning

Guión
Tod Browning
Charles Kenyon

Intérpretes
Priscilla Dean
Matt Moore
Raymond Griffith
Wallace Beery
Alfred Allen


Tres delincuentes llevan a cabo lo que parece un golpe perfecto. Pero, como se ven obligados a convivir juntos mientras se esconden de la policía, poco a poco empiezan a desconfiar los unos de los otros... (FILMAFFINITY)


Ripeo, descargado de la web Filmoteca Hawkmenblues, obra de Malachi, presentado originalmente en dos partes. Los subtítulos son de Federico1921.


Imagen


Imagen


Datos técnicos:

Código: Seleccionar todo

General
Complete name               : White Tiger (Tod Browning, 1923).avi
Format                      : AVI
Format/Info                 : Audio Video Interleave
File size                   : 745 MiB
Duration                    : 1 h 21 min
Overall bit rate            : 1 285 kb/s

Video
ID                          : 0
Format                      : MPEG-4 Visual
Format profile              : Simple@L1
Format settings, BVOP       : No
Format settings, QPel       : No
Format settings, GMC        : No warppoints
Format settings, Matrix     : Default (H.263)
Codec ID                    : XVID
Codec ID/Hint               : XviD
Duration                    : 1 h 21 min
Bit rate                    : 1 079 kb/s
Width                       : 352 pixels
Height                      : 240 pixels
Display aspect ratio        : 3:2
Frame rate                  : 29.970 (30000/1001) FPS
Standard                    : NTSC
Color space                 : YUV
Chroma subsampling          : 4:2:0
Bit depth                   : 8 bits
Scan type                   : Progressive
Compression mode            : Lossy
Bits/(Pixel*Frame)          : 0.426
Stream size                 : 626 MiB (84%)
Writing library             : FFmpeg0.4.9-pre1b4721

Audio
ID                          : 1
Format                      : MPEG Audio
Format version              : Version 1
Format profile              : Layer 3
Codec ID                    : 55
Codec ID/Hint               : MP3
Duration                    : 1 h 21 min
Bit rate mode               : Constant
Bit rate                    : 192 kb/s
Channel(s)                  : 2 channels
Sampling rate               : 44.1 kHz
Compression mode            : Lossy
Stream size                 : 111 MiB (15%)
Alignment                   : Aligned on interleaves
Interleave, duration        : 26  ms (0.78 video frame)
Writing library             : LAME3.92

Imagen
Imagen
Imagen
Imagen
Imagen


eD2K link White Tiger (Tod Browning, 1923).avi [745.08 Mb] 

Subtítulos en español obra de Federico1921:
https://www.subdivx.com/X6XNTIwMTYx

Avatar de Usuario
Arthur James Hamp
 
Mensajes: 2572
Registrado: 06 May 2016, 11:47
Ubicación: Canet de Berenguer (Valencia)
Agradecido : 3719 veces
Agradecimiento recibido: 4036 veces

Re: White Tiger (Tod Browning, 1923) VHSRip VOSE

Mensaje por Arthur James Hamp » 26 Nov 2017, 19:22

Muchas gracias a todos. :aplauso: :aplauso:
Para llevarse bien ...
no necesitamos las mismas ideas ...
necesitamos el mismo respeto.

Avatar de Usuario
sete
 
Mensajes: 4716
Registrado: 22 Dic 2012, 16:10
Agradecido : 239 veces
Agradecimiento recibido: 1474 veces

Re: White Tiger (Tod Browning, 1923) VHSRip VOSE

Mensaje por sete » 26 Nov 2017, 20:01

Muchas gracias, fifole, Malachi y Federico1921.
:hi:
Este mundo está traicionando a la vida.
José Luis Sampedro

james mason
 
Mensajes: 869
Registrado: 03 Oct 2012, 11:31
Ubicación: En algún lugar de Extremadura
Agradecido : 11 veces
Agradecimiento recibido: 246 veces

Re: White Tiger (Tod Browning, 1923) VHSRip VOSE

Mensaje por james mason » 26 Nov 2017, 20:07

Muchas gracias, compañero.
Solo una cosa. El archivo de subtítulos parece dañado, yo al menos no consigo descomprimirlo.

Un saludo

Avatar de Usuario
Arthur James Hamp
 
Mensajes: 2572
Registrado: 06 May 2016, 11:47
Ubicación: Canet de Berenguer (Valencia)
Agradecido : 3719 veces
Agradecimiento recibido: 4036 veces

Re: White Tiger (Tod Browning, 1923) VHSRip VOSE

Mensaje por Arthur James Hamp » 26 Nov 2017, 20:19

james mason escribió:Muchas gracias, compañero.
Solo una cosa. El archivo de subtítulos parece dañado, yo al menos no consigo descomprimirlo.

Un saludo
Yo no he tenido ningun problema. :hi:
Para llevarse bien ...
no necesitamos las mismas ideas ...
necesitamos el mismo respeto.

Avatar de Usuario
janca
 
Mensajes: 2600
Registrado: 16 Oct 2012, 16:39
Agradecido : 8954 veces
Agradecimiento recibido: 145 veces

Re: White Tiger (Tod Browning, 1923) VHSRip VOSE

Mensaje por janca » 26 Nov 2017, 21:01

Arthur James Hamp escribió:
james mason escribió:Muchas gracias, compañero.
Solo una cosa. El archivo de subtítulos parece dañado, yo al menos no consigo descomprimirlo.

Un saludo
Yo no he tenido ningun problema. :hi:
Pues yo tampoco he podido

Avatar de Usuario
fifole
 
Mensajes: 4959
Registrado: 17 Oct 2012, 20:47
Agradecido : 13308 veces
Agradecimiento recibido: 19068 veces

Re: White Tiger (Tod Browning, 1923) VHSRip VOSE

Mensaje por fifole » 26 Nov 2017, 21:36

james mason escribió:Muchas gracias, compañero.
Solo una cosa. El archivo de subtítulos parece dañado, yo al menos no consigo descomprimirlo.

Un saludo
Lo he comprobado y yo no tengo problema para descargarlos y extraerlos. Por si acaso, los he puesto a compartir también por emule.

:hi:

james mason
 
Mensajes: 869
Registrado: 03 Oct 2012, 11:31
Ubicación: En algún lugar de Extremadura
Agradecido : 11 veces
Agradecimiento recibido: 246 veces

Re: White Tiger (Tod Browning, 1923) VHSRip VOSE

Mensaje por james mason » 26 Nov 2017, 22:38

Voy a descargarlos del emule.
Muchas gracias! :hi:

Danyyyy
 
Mensajes: 2087
Registrado: 27 Ene 2015, 18:14
Agradecido : 1871 veces
Agradecimiento recibido: 683 veces

Re: White Tiger (Tod Browning, 1923) VHSRip VOSE

Mensaje por Danyyyy » 27 Nov 2017, 00:19

Parece interesante.

xeneise007
 
Mensajes: 1027
Registrado: 08 Ene 2013, 12:19
Ubicación: Reino de Aragón
Agradecido : 1224 veces
Agradecimiento recibido: 352 veces

Re: White Tiger (Tod Browning, 1923) VHSRip VOSE

Mensaje por xeneise007 » 27 Nov 2017, 05:42

Gracias Fifole. :hi:

Responder

Volver a “Cine Mudo”