Reaching for the Moon (John Emerson, 1917) DVDrip VOSE

Puntuación
Sin
puntuar
El maravilloso mundo del cine silente.
Hasta 1936 inclusive (<= 1936)

Moderador: Monsieur Lange

Responder
montagut
 
Mensajes: 270
Registrado: 04 Mar 2013, 23:16
Agradecido : 96 veces
Agradecimiento recibido: 929 veces

Estados Unidos Reaching for the Moon (John Emerson, 1917) DVDrip VOSE

Mensaje por montagut » 30 Jul 2017, 15:58

REACHING FOR THE MOON (1917)

Imagen


Director: John Emerson
Reparto: Douglas Fairbanks, Eileen Percy, Richard Cummings, Millard Webb, Eugene Ormonde
Duración: 69 min. (1 h. 9 m.)
Género: Aventuras
País: Estados Unidos
Sinopsis: A factory worker has always dreamed that he was meant for better things, to be rich and famous and in "the company of kings". One day he discovers that he is indeed the only heir to the ...
IMDB

Capturas:
ImagenImagen
ImagenImagen
Imagen
Datos tecnicos:

Código: Seleccionar todo

General
Complete name                  : E:\temporal\videos\Reachng for the moon-Emerson17.avi
Format                         : AVI
Format/Info                    : Audio Video Interleave
File size                      : 1.27 GiB
Duration                       : 1 h 9 min
Overall bit rate               : 2 637 kb/s

Video
ID                             : 0
Format                         : MPEG-4 Visual
Format profile                 : Advanced Simple@L5
Format settings, BVOP          : 2
Format settings, QPel          : No
Format settings, GMC           : No warppoints
Format settings, Matrix        : Default (H.263)
Codec ID                       : XVID
Codec ID/Hint                  : XviD
Duration                       : 1 h 9 min
Bit rate                       : 2 431 kb/s
Width                          : 720 pixels
Height                         : 480 pixels
Display aspect ratio           : 3:2
Frame rate                     : 29.970 (30000/1001) FPS
Original frame rate            : 29.970 (29970/1000) FPS
Standard                       : NTSC
Color space                    : YUV
Chroma subsampling             : 4:2:0
Bit depth                      : 8 bits
Scan type                      : Progressive
Compression mode               : Lossy
Bits/(Pixel*Frame)             : 0.235
Stream size                    : 1.17 GiB (92%)
Writing library                : XviD 1.2.1 (UTC 2008-12-04)

Audio
ID                             : 1
Format                         : MPEG Audio
Format version                 : Version 1
Format profile                 : Layer 3
Codec ID                       : 55
Codec ID/Hint                  : MP3
Duration                       : 1 h 9 min
Source duration                : 1 h 9 min
Bit rate mode                  : Constant
Bit rate                       : 192 kb/s
Channel(s)                     : 2 channels
Sampling rate                  : 48.0 kHz
Compression mode               : Lossy
Stream size                    : 94.8 MiB (7%)
Alignment                      : Split accross interleaves
Interleave, duration           : 24  ms (0.72 video frame)
Writing library                : LAME3.98.2

eD2K link Reaching for the moon (John Emerson, 1917) DVDrip.avi [1.27 Gb] 
Subtitulos (de Eddie Constanti): http://www.subdivx.com/X6XNTA4Nzc0X-rea ... -1917.html
eD2K link Reaching for the moon (John Emerson, 1917) DVDrip.srt [18.2 Kb] 
Última edición por montagut el 30 Jul 2017, 16:07, editado 1 vez en total.

Avatar de Usuario
Eddie Constanti
 
Mensajes: 3722
Registrado: 05 Ago 2013, 21:31
Ubicación: Vallès Oriental
Agradecido : 1158 veces
Agradecimiento recibido: 2088 veces

Re: Reaching for the moon (John Emerson, 1917) DVDrip VOSE

Mensaje por Eddie Constanti » 30 Jul 2017, 15:59

De las más divertidas de Fairbanks.
¡Gracias, montagut!

Avatar de Usuario
Graveland
 
Mensajes: 2614
Registrado: 22 Nov 2012, 15:30
Agradecido : 794 veces
Agradecimiento recibido: 2741 veces

Re: Reaching for the moon (John Emerson, 1917) DVDrip VOSE

Mensaje por Graveland » 30 Jul 2017, 16:06

¡Mil gracias, montagut y Eddie!
Última edición por Graveland el 30 Jul 2017, 17:39, editado 1 vez en total.

Avatar de Usuario
Prudencio
 
Mensajes: 3422
Registrado: 16 Oct 2012, 18:46
Agradecido : 3524 veces
Agradecimiento recibido: 1029 veces

Re: Reaching for the moon (John Emerson, 1917) DVDrip VOSE

Mensaje por Prudencio » 30 Jul 2017, 17:24

Muchas gracias, Montagut y Eddie. :hi:

Avatar de Usuario
sete
 
Mensajes: 3008
Registrado: 22 Dic 2012, 16:10
Agradecido : 36 veces
Agradecimiento recibido: 619 veces

Re: Reaching for the moon (John Emerson, 1917) DVDrip VOSE

Mensaje por sete » 30 Jul 2017, 17:55

Muchas gracias, Eddie Constanti y montagut.
:hi:
Este mundo está traicionando a la vida.
José Luis Sampedro

Angeluco
 
Mensajes: 941
Registrado: 25 Nov 2012, 12:41
Agradecido : 1112 veces
Agradecimiento recibido: 218 veces

Re: Reaching for the moon (John Emerson, 1917) DVDrip VOSE

Mensaje por Angeluco » 30 Jul 2017, 20:27

Prudencio escribió:Muchas gracias, Montagut y Eddie. :hi:
:genial: :genial:

jail
 
Mensajes: 4857
Registrado: 18 Oct 2012, 15:34
Agradecido : 5363 veces
Agradecimiento recibido: 1218 veces

Re: Reaching for the moon (John Emerson, 1917) DVDrip VOSE

Mensaje por jail » 30 Jul 2017, 21:18

Prudencio escribió:Muchas gracias, Montagut y Eddie. :hi:

Avatar de Usuario
Monsieur Lange
 
Mensajes: 3265
Registrado: 13 Sep 2012, 19:39
Ubicación: Cruzando las dunas
Agradecido : 212 veces
Agradecimiento recibido: 659 veces

Re: Reaching for the moon (John Emerson, 1917) DVDrip VOSE

Mensaje por Monsieur Lange » 31 Jul 2017, 02:38

Eddie Constanti escribió:De las más divertidas de Fairbanks.
¡Gracias, montagut!
Si Eddie lo dice, no lo voy a poner en duda yo. Así que para casa. :aplauso: :aplauso:
"Adaptar no es recalentar la comida"
Alain Resnais

Avatar de Usuario
yojimbo
 
Mensajes: 7442
Registrado: 18 Oct 2012, 14:25
Agradecido : 6881 veces
Agradecimiento recibido: 1422 veces

Re: Reaching for the Moon (John Emerson, 1917) DVDrip VOSE

Mensaje por yojimbo » 31 Jul 2017, 16:03

Muchas gracias, montagut y Eddie Constanti.

Avatar de Usuario
tonapar1
 
Mensajes: 3025
Registrado: 16 Oct 2012, 20:19
Agradecido : 676 veces
Agradecimiento recibido: 607 veces

Re: Reaching for the Moon (John Emerson, 1917) DVDrip VOSE

Mensaje por tonapar1 » 02 Ago 2017, 00:16

Muchas gracias por el ripeo y los subs a montagut y a eddie constanti. Un saludo a ambos.

Responder

Volver a “Cine Mudo”