Oscar au bain (Léonce Perret, 1913) DVDRip VOSE

Puntuación
Sin
puntuar
El maravilloso mundo del cine silente.
Hasta 1936 inclusive (<= 1936)

Moderador: Monsieur Lange

Responder
Avatar de Usuario
Lobo López
 
Mensajes: 1205
Registrado: 16 Oct 2012, 15:07
Ubicación: Cuenca
Agradecido : 1490 veces
Agradecimiento recibido: 2115 veces
Contactar:

Francia Oscar au bain (Léonce Perret, 1913) DVDRip VOSE

Mensaje por Lobo López » 24 Jul 2016, 21:49

EDDIE CONSTANTI Y LOBO LÓPEZ PRESENTAN

CICLO LÉONCE PERRET

Imagen
Imagen
Imagen

Título original: Oscar au bain
Director: Léonce Perret
Reparto: Léon Lorin, Angèle Lérida, Mademoiselle Davrières
Año: 1913
País: Francia
Duración: 12 min.
Producción: Gaumont
------------------------------------------------------------------------------------------------------------------------------

Argumento: Oscar se propone una nueva conquista. Cuando está de visita en casa de la mujer amada, Oscar entiende equivocadamente una frase dicha por la dama, quien se llevará una sorpresa por parte de nuestro protagonista.

------------------------------------------------------------------------------------------------------------------------------

ImagenImagen
ImagenImagen

Datos Técnicos:
Spoiler:
Format : Matroska
Format version : Version 4 / Version 2
File size : 177 MiB
Duration : 11mn 32s
Overall bit rate : 2 141 Kbps
Encoded date : UTC 2016-07-24 19:37:37
Writing application : mkvmerge v9.1.0 ('Little Earthquakes') 64bit
Writing library : libebml v1.3.3 + libmatroska v1.4.4
DURATION : 00:11:31.680000000
NUMBER_OF_FRAMES : 19
NUMBER_OF_BYTES : 641
_STATISTICS_WRITING_APP : mkvmerge v9.1.0 ('Little Earthquakes') 64bit
_STATISTICS_WRITING_DATE_UTC : 2016-07-24 19:37:37
_STATISTICS_TAGS : BPS DURATION NUMBER_OF_FRAMES NUMBER_OF_BYTES

Video
ID : 1
Format : AVC
Format/Info : Advanced Video Codec
Format profile : High@L4.1
Format settings, CABAC : Yes
Format settings, ReFrames : 16 frames
Codec ID : V_MPEG4/ISO/AVC
Duration : 11mn 32s
Bit rate : 1 906 Kbps
Width : 696 pixels
Height : 552 pixels
Display aspect ratio : 4:3
Original display aspect ratio : 4:3
Frame rate mode : Constant
Frame rate : 25.000 fps
Color space : YUV
Chroma subsampling : 4:2:0
Bit depth : 8 bits
Scan type : Progressive
Bits/(Pixel*Frame) : 0.198
Stream size : 157 MiB (89%)
Writing library : x264 core 125 r2200+677M 3a754e7
Encoding settings : cabac=1 / ref=16 / deblock=1:-1:-1 / analyse=0x3:0x133 / me=umh / subme=10 / psy=1 / fade_compensate=0.00 / psy_rd=1.00:0.15 / mixed_ref=1 / me_range=24 / chroma_me=1 / trellis=2 / 8x8dct=1 / cqm=0 / deadzone=21,11 / fast_pskip=0 / chroma_qp_offset=-3 / threads=3 / lookahead_threads=1 / sliced_threads=0 / nr=0 / decimate=1 / interlaced=0 / bluray_compat=0 / constrained_intra=0 / fgo=0 / bframes=8 / b_pyramid=2 / b_adapt=2 / b_bias=0 / direct=3 / weightb=1 / open_gop=0 / weightp=2 / keyint=250 / keyint_min=25 / scenecut=40 / intra_refresh=0 / rc_lookahead=60 / rc=crf / mbtree=1 / crf=19.5000 / qcomp=0.60 / qpmin=0 / qpmax=69 / qpstep=4 / ip_ratio=1.40 / aq=1:1.00
Language : French
Default : Yes
Forced : No
DURATION : 00:11:32.600000000
NUMBER_OF_FRAMES : 17315
NUMBER_OF_BYTES : 168557372
_STATISTICS_WRITING_APP : mkvmerge v9.1.0 ('Little Earthquakes') 64bit
_STATISTICS_WRITING_DATE_UTC : 2016-07-24 19:37:37
_STATISTICS_TAGS : BPS DURATION NUMBER_OF_FRAMES NUMBER_OF_BYTES

Audio
ID : 2
Format : AC-3
Format/Info : Audio Coding 3
Mode extension : CM (complete main)
Format settings, Endianness : Big
Codec ID : A_AC3
Duration : 11mn 32s
Bit rate mode : Constant
Bit rate : 192 Kbps
Channel(s) : 2 channels
Channel positions : Front: L R
Sampling rate : 48.0 KHz
Bit depth : 16 bits
Compression mode : Lossy
Stream size : 15.9 MiB (9%)
Language : French
Default : Yes
Forced : No

Text #1
ID : 3
Format : UTF-8
Codec ID : S_TEXT/UTF8
Codec ID/Info : UTF-8 Plain Text
Language : Spanish
Default : Yes
Forced : No

Text #2
ID : 4
Format : UTF-8
Codec ID : S_TEXT/UTF8
Codec ID/Info : UTF-8 Plain Text
Language : English
Default : No
Forced : No
------------------------------------------------------------------------------------------------------------------------------

:flecha: eD2K link oscar.au.bain.1913.léonce.perret.dvdrip.x264.ac3.mkv [176.75 Mb] 

Subtítulos en español de Eddie Constanti. Se encuentran dentro del contenedor del archivo. También contiene subtítulos en inglés.

Subs en descarga directa: http://www.subdivx.com/X6XNDczNzc5X-osc ... -1913.html

------------------------------------------------------------------------------------------------------------------------------
Eddie Constanti escribió:
La serie "Oscar" se creyó, erróneamente, que era obra de Feuillade, cuando su autor fue Perret. De hecho, el IMDB se la sigue adjudicando al primero. Sabemos que se trató de una quincena de cortos cuyo intérprete, Léon Lorin, era un atildado y elegantemente vestido señor de mediana edad, que en cada episodio trataba de lograr los favores de una joven distinta (en este caso la joven es mademoiselle Angèle Lérida).

La representación de este galán algo trasnochado era muy parisina pero también bastante irónica, como se puede apreciar, por ejemplo, por la forma de andar del referido.

Una primera y magnífica escena nos muestra el París de aquellos tiempos: la plaza de la Concorde, la avenida de la Opéra, los Campos Elíseos, el Petit y Grand Palais... Sólo con estas imágenes, la película ya nos brinda un testimonio documental impagable. Luego llega el enredo por culpa de una frase que, en francés, literalmente significa una cosa y en sentido figurado, otra muy distinta. Claro está, no revelaremos aquí la naturaleza de dicha frase. Lorin borda su papel y la señorita Lérida añade el contrapunto chispeante a la historia. En el plano final vemos al mismo Perret sosteniendo un par de bebés y el rótulo: "¡Hagan ustedes lo mismo!". Es decir, el amor y no la guerra. Desgraciadamente, como transfondo ya se cernía en toda Europa la primera contienda mundial...


Avatar de Usuario
yojimbo
 
Mensajes: 6921
Registrado: 18 Oct 2012, 14:25
Agradecido : 6077 veces
Agradecimiento recibido: 1174 veces

Re: Oscar au bain (Léonce Perret, 1913) DVDRip VOSE

Mensaje por yojimbo » 24 Jul 2016, 22:06

Muchas gracias, Lobo López y Eddie Constanti.

Avatar de Usuario
Eddie Constanti
 
Mensajes: 3521
Registrado: 05 Ago 2013, 21:31
Ubicación: Vallès Oriental
Agradecido : 1121 veces
Agradecimiento recibido: 1833 veces

Re: Oscar au bain (Léonce Perret, 1913) DVDRip VOSE

Mensaje por Eddie Constanti » 24 Jul 2016, 23:03

Gracias, Lobo. ¡Qué pena no tener más "Oscars"!

brewster
 
Mensajes: 298
Registrado: 16 Oct 2012, 19:03
Agradecido : 626 veces
Agradecimiento recibido: 165 veces

Re: Oscar au bain (Léonce Perret, 1913) DVDRip VOSE

Mensaje por brewster » 24 Jul 2016, 23:12

Muchas gracias, Lobo y Eddie.

jail
 
Mensajes: 4284
Registrado: 18 Oct 2012, 15:34
Agradecido : 4747 veces
Agradecimiento recibido: 938 veces

Re: Oscar au bain (Léonce Perret, 1913) DVDRip VOSE

Mensaje por jail » 24 Jul 2016, 23:25

yojimbo escribió:Muchas gracias, Lobo López y Eddie Constanti.

Avatar de Usuario
gatatitania
 
Mensajes: 3418
Registrado: 16 Oct 2012, 18:27
Ubicación: Gatatitania es un gato hambriento, superviviente del planeta gatatitania...
Agradecido : 1900 veces
Agradecimiento recibido: 653 veces

Re: Oscar au bain (Léonce Perret, 1913) DVDRip VOSE

Mensaje por gatatitania » 25 Jul 2016, 00:12

¡Gracias a los dos! :aplauso: :aplauso: :aplauso:
Cual plaga de langosta

Avatar de Usuario
Prudencio
 
Mensajes: 3118
Registrado: 16 Oct 2012, 18:46
Agradecido : 3059 veces
Agradecimiento recibido: 796 veces

Re: Oscar au bain (Léonce Perret, 1913) DVDRip VOSE

Mensaje por Prudencio » 25 Jul 2016, 02:13

Muchas gracias, Lobo y Eddie. :hi:

Avatar de Usuario
sete
 
Mensajes: 2589
Registrado: 22 Dic 2012, 16:10
Agradecido : 1 vez
Agradecimiento recibido: 428 veces

Re: Oscar au bain (Léonce Perret, 1913) DVDRip VOSE

Mensaje por sete » 25 Jul 2016, 09:12

Muchas gracias, Eddie Constanti y Lobo López.
:hi:
Este mundo está traicionando a la vida.
José Luis Sampedro

Angeluco
 
Mensajes: 861
Registrado: 25 Nov 2012, 12:41
Agradecido : 993 veces
Agradecimiento recibido: 157 veces

Re: Oscar au bain (Léonce Perret, 1913) DVDRip VOSE

Mensaje por Angeluco » 25 Jul 2016, 20:34

Muchísimas gracias a los dos,Lobo y Eddie.

Responder

Volver a “Cine Mudo”