Kukla s millionami (Sergey Komarov, 1928) TVRip VOSE

Puntuación
Sin
puntuar

La muñeca con los millones

El maravilloso mundo del cine silente.
Hasta 1936 inclusive (<= 1936)

Moderador: Monsieur Lange

Responder
montagut
 
Mensajes: 270
Registrado: 04 Mar 2013, 23:16
Agradecido : 96 veces
Agradecimiento recibido: 929 veces

ex Unión Soviética Kukla s millionami (Sergey Komarov, 1928) TVRip VOSE

Mensaje por montagut » 01 Dic 2015, 19:20

KUKLA S MILLIONAMI

Imagen

IMDB

Título original: Kukla s millionami
Director: Sergey Komarov
Año: 1928
País: URSS
Guión: Oleg Leonidov, Fyodor Otsep
Producción: Mezhrabpomfilm
Intérpretes: Igor Ilyinsky, Vladimir Fogel, Galina Kravchenko, Ada Vojtsik, Vladimir Chuvelyov
Duración: 66 min.

Argumento: La señora Collie, una rica viuda, deja su fortuna a su sobrina María Ivanova. Dos primos de Maria van de París a Moscú a su encuentro. Tienen que localizar a una chica de 17 años con un lunar en el hombro derecho. Los documentos de la heredera se hallan ocultos en una muñeca que ella tiene. (FILMAFFINITY)

ImagenImagen
ImagenImagen
Imagen

Datos Técnicos:
Spoiler:
General
Complete name : E:\temporal\videos\Kukla_s_millionami_[torrents.ru].avi
Format : AVI
Format/Info : Audio Video Interleave
File size : 1.03 GiB
Duration : 1h 5mn
Overall bit rate : 2 231 Kbps
Movie name : Kukla s millionami
Director : Mezhrabpomfil'm
Recorded date : 1928
Writing application : VirtualDubMod 1.5.10.2 (build 2542/release)
Writing library : VirtualDubMod build 2542/release
Comment : TVrip by Turtle @ XviDClub / DivX Pro 5.0.3 @ 0,433 bpp / Lame MP3 44,1 kHz Mono @ 96 kbps

Video
ID : 0
Format : MPEG-4 Visual
Format settings, BVOP : 1
Format settings, QPel : No
Format settings, GMC : No warppoints
Format settings, Matrix : Default (H.263)
Muxing mode : Packed bitstream
Codec ID : DX50
Codec ID/Hint : DivX 5
Duration : 1h 5mn
Bit rate : 2 125 Kbps
Width : 512 pixels
Height : 384 pixels
Display aspect ratio : 4:3
Frame rate : 25.000 fps
Color space : YUV
Chroma subsampling : 4:2:0
Bit depth : 8 bits
Scan type : Progressive
Compression mode : Lossy
Bits/(Pixel*Frame) : 0.432
Stream size : 1 001 MiB (95%)
Writing library : DivX 5.0.3 (UTC 2003-01-24)

Audio
ID : 1
Format : MPEG Audio
Format version : Version 1
Format profile : Layer 3
Codec ID : 55
Codec ID/Hint : MP3
Duration : 1h 5mn
Bit rate mode : Constant
Bit rate : 96.0 Kbps
Channel(s) : 1 channel
Sampling rate : 44.1 KHz
Compression mode : Lossy
Stream size : 45.2 MiB (4%)
Alignment : Split accross interleaves
Interleave, duration : 40 ms (1.00 video frame)
Interleave, preload duration : 500 ms
Writing library : LAME3.96.1

:flecha: eD2K link Kukla_s_millionami_[torrents.ru].avi [1.03 Gb] 

subtitulos en ingles: http://www.opensubtitles.org/en/subtitl ... lionami-en
Subtítulos en español:
Prudencio escribió:Han aparecido subtítulos en español aquí:
http://www.subdivx.com/X6XNDU1NDgzX-kuk ... -1928.html
Muchas gracias, montagut. :hi:

Avatar de Usuario
fifole
 
Mensajes: 3454
Registrado: 17 Oct 2012, 20:47
Agradecido : 5441 veces
Agradecimiento recibido: 8286 veces

Re: Kukla s millionami (Sergey Komarov, 1928) TVRip VO+SI

Mensaje por fifole » 01 Dic 2015, 22:47

Parece interesante esta desconocida comedia co-dirigida por Fedor Ozep.

A ver si alguien con ganas y tiempo se anima con los subtítulos.

Muchas gracias, montagut. :hi:

jail
 
Mensajes: 4857
Registrado: 18 Oct 2012, 15:34
Agradecido : 5363 veces
Agradecimiento recibido: 1218 veces

Re: Kukla s millionami (Sergey Komarov, 1928) TVRip VO+SI

Mensaje por jail » 02 Dic 2015, 00:57

Gracias, montagut.

Avatar de Usuario
tonapar1
 
Mensajes: 3025
Registrado: 16 Oct 2012, 20:19
Agradecido : 676 veces
Agradecimiento recibido: 607 veces

Re: Kukla s millionami (Sergey Komarov, 1928) TVRip VO+SI

Mensaje por tonapar1 » 10 Dic 2015, 06:31

Muchas gracias por el ripeo y los subs, montagut. Un saludo

Avatar de Usuario
yojimbo
 
Mensajes: 7442
Registrado: 18 Oct 2012, 14:25
Agradecido : 6881 veces
Agradecimiento recibido: 1422 veces

Re: Kukla s millionami (Sergey Komarov, 1928) TVRip VO+SI

Mensaje por yojimbo » 31 Dic 2015, 14:53

Muchas gracias, montagut.

Avatar de Usuario
Prudencio
 
Mensajes: 3422
Registrado: 16 Oct 2012, 18:46
Agradecido : 3524 veces
Agradecimiento recibido: 1029 veces

Re: Kukla s millionami (Sergey Komarov, 1928) TVRip VO+SI

Mensaje por Prudencio » 03 Feb 2016, 02:29

Han aparecido subtítulos en español aquí:
http://www.subdivx.com/X6XNDU1NDgzX-kuk ... -1928.html
Muchas gracias, montagut. :hi:

Avatar de Usuario
sete
 
Mensajes: 3008
Registrado: 22 Dic 2012, 16:10
Agradecido : 36 veces
Agradecimiento recibido: 619 veces

Re: Kukla s millionami (Sergey Komarov, 1928) TVRip VOSE

Mensaje por sete » 15 Feb 2016, 09:12

Muchas gracias, montagut y Prudencio.
:hi:
Este mundo está traicionando a la vida.
José Luis Sampedro

Responder

Volver a “Cine Mudo”