Helen of Troy (John Kent Harrison, 2003) BDRip 1080p Dual SE-SI

Puntuación
Sin
puntuar

Helena de Troya

Largometrajes para televisión y/o vídeo que no se hayan estrenado en cine.

Moderador: mifune

Reglas del Foro
Norma de los tres años.
Responder
Avatar de Usuario
eulsus
 
Mensajes: 3190
Registrado: 08 Abr 2015 01:14
Ubicación: La Palma
Agradecido : 3360 veces
Agradecimiento recibido: 4630 veces

Estados Unidos Helen of Troy (John Kent Harrison, 2003) BDRip 1080p Dual SE-SI

Mensaje por eulsus » 08 May 2022 23:28

castleaco en DivX Clásico escribió:
Helena de Troya

John Kent Harrison, 2003


Imagen

Imagen

Título original
Helen of Troy
Año
2003
Duración
240 min.
País
Imagen
Dirección
John Kent Harrison
Guion
Ronni Kern. Poemas: Homero
Música
Neal Acree, Joel Goldsmith
Fotografía
Edward J. Pei
Reparto
Sienna Guillory, Rufus Sewell, Matthew Marsden, John Rhys-Davies, Maryam d'Abo, Emilia Fox, James Challis, Katie Blake, Joe Montana, Daniel Lapaine, Manuel Cauchi, Stellan Skarsgård, Nigel Whitmey, ver 17 más
Productora
Fuel Entertainment. Distribuidora: USA Network
Género
Serie de TV. Aventuras. Acción. Romance | Miniserie de TV. Mitología. Antigua Grecia
Grupos
Adaptaciones de Homero
Sinopsis
Miniserie de TV de 2 episodios. Aunque está casada con Menelao, rey de Esparta, Helena (Sienna Guillory) se enamora locamente de Paris (Matthew Marsden), un apuesto príncipe troyano. Los amantes huyen juntos a Troya, donde el padre de Paris, el rey Príamo (John Rhys-Davies), les brinda asilo. Decidido a recuperar a Helena, Agamenón, (Rufus Sewell), el despiadado hermano de Menelao, conduce los ejércitos de toda Grecia hasta las costas de la ciudad fortificada. (FILMAFFINITY)

Código: Seleccionar todo

General
Complete name                  : Helen.Of.Troy.2003.1080p.x264.spa.ac3.eng.aac.castleaco.mkv
Format                         : Matroska
Format version                 : Version 4
File size                      : 14.9 GiB
Duration                       : 2 h 54 min
Overall bit rate               : 12.2 Mb/s
Encoded date                   : UTC 2022-08-07 08:53:05
Writing application            : mkvmerge v69.0.0 ('Day And Age') 64-bit
Writing library                : libebml v1.4.2 + libmatroska v1.6.4
Cover                          : Yes
Attachments                    : cover.jpg

Video
ID                             : 1
Format                         : AVC
Format/Info                    : Advanced Video Codec
Format profile                 : High@L4.1
Format settings                : CABAC / 4 Ref Frames
Format settings, CABAC         : Yes
Format settings, Reference fra : 4 frames
Codec ID                       : V_MPEG4/ISO/AVC
Duration                       : 2 h 54 min
Bit rate                       : 11.0 Mb/s
Width                          : 1 920 pixels
Height                         : 1 080 pixels
Display aspect ratio           : 16:9
Frame rate mode                : Constant
Frame rate                     : 23.976 (24000/1001) FPS
Color space                    : YUV
Chroma subsampling             : 4:2:0
Bit depth                      : 8 bits
Scan type                      : Progressive
Bits/(Pixel*Frame)             : 0.222
Stream size                    : 13.4 GiB (90%)
Title                          : Helen.of.Troy.2003.1080p.BluRay
Writing library                : x264 core 155 r2901 7d0ff22
Encoding settings              : cabac=1 / ref=4 / deblock=1:0:0 / analyse=0x3:0x113 / me=umh / subme=8 / psy=1 / psy_rd=1.00:0.00 / mixed_ref=1 / me_range=16 / chroma_me=1 / trellis=2 / 8x8dct=1 / cqm=0 / deadzone=21,11 / fast_pskip=0 / chroma_qp_offset=-2 / threads=12 / lookahead_threads=2 / sliced_threads=0 / nr=0 / decimate=1 / interlaced=0 / bluray_compat=0 / constrained_intra=0 / bframes=3 / b_pyramid=2 / b_adapt=1 / b_bias=0 / direct=1 / weightb=1 / open_gop=0 / weightp=2 / keyint=250 / keyint_min=23 / scenecut=40 / intra_refresh=0 / rc_lookahead=50 / rc=2pass / mbtree=1 / bitrate=11024 / ratetol=1.0 / qcomp=0.60 / qpmin=0 / qpmax=69 / qpstep=4 / cplxblur=20.0 / qblur=0.5 / ip_ratio=1.40 / aq=1:1.00
Language                       : English
Default                        : Yes
Forced                         : No

Audio #1
ID                             : 2
Format                         : AAC LC
Format/Info                    : Advanced Audio Codec Low Complexity
Codec ID                       : A_AAC-2
Duration                       : 2 h 54 min
Bit rate                       : 1 023 kb/s
Channel(s)                     : 6 channels
Channel layout                 : C L R Ls Rs LFE
Sampling rate                  : 48.0 kHz
Frame rate                     : 46.875 FPS (1024 SPF)
Compression mode               : Lossy
Stream size                    : 1.25 GiB (8%)
Language                       : English
Default                        : Yes
Forced                         : No

Audio #2
ID                             : 3
Format                         : AC-3
Format/Info                    : Audio Coding 3
Commercial name                : Dolby Digital
Codec ID                       : A_AC3
Duration                       : 2 h 54 min
Bit rate mode                  : Constant
Bit rate                       : 192 kb/s
Channel(s)                     : 2 channels
Channel layout                 : L R
Sampling rate                  : 48.0 kHz
Frame rate                     : 31.250 FPS (1536 SPF)
Compression mode               : Lossy
Stream size                    : 240 MiB (2%)
Title                          : Español EU
Language                       : Spanish
Service kind                   : Complete Main
Default                        : Yes
Forced                         : Yes

Text #1
ID                             : 4
Format                         : UTF-8
Codec ID                       : S_TEXT/UTF8
Codec ID/Info                  : UTF-8 Plain Text
Duration                       : 2 h 51 min
Bit rate                       : 29 b/s
Frame rate                     : 0.109 FPS
Count of elements              : 1124
Stream size                    : 36.7 KiB (0%)
Title                          : Español EU
Language                       : Spanish
Default                        : Yes
Forced                         : No

Text #2
ID                             : 5
Format                         : UTF-8
Codec ID                       : S_TEXT/UTF8
Codec ID/Info                  : UTF-8 Plain Text
Duration                       : 2 h 51 min
Bit rate                       : 29 b/s
Frame rate                     : 0.116 FPS
Count of elements              : 1192
Stream size                    : 36.5 KiB (0%)
Title                          : English
Language                       : English
Default                        : Yes
Forced                         : No

Capturas:
Imagen
Imagen
Imagen
Imagen

Antes:
Imagen
Ahora:
Imagen

Antes:
Imagen
Ahora:
Imagen

Imagen
Imagen


Copia encontrada en torrent con la mejor calidad disponible obra de ZGV (Gracias). Le he acoplado el audio castellano resincronizándolo de una vieja copia que tenía en mi poder. He realizado varios ajustes para que calzara en condiciones. Le he añadido subtítulos en castellano, pero no recuerdo de dónde los saqué, ya que hace tiempo que me hice este montaje.

eD2K link Helen.Of.Troy.2003.1080p.x264.spa.ac3.eng.aac.castleaco.mkv [14.93 Gb] 
Última edición por eulsus el 09 Ago 2022 22:31, editado 2 veces en total.
Imagen
Antonio García-Trevijano Forte (1927-2018)
"Para que yo sea libre, todos tienen que ser libres"

Abstención activa hasta que haya Libertad Colectiva

Avatar de Usuario
juannavarrete
 
Mensajes: 3323
Registrado: 16 Oct 2012 15:21
Ubicación: En la frontera de la webtern
Agradecido : 11 veces
Agradecimiento recibido: 3727 veces

Re: Helen of Troy (John Kent Harrison, 2003) BDRip 1080p Dual SE-SI

Mensaje por juannavarrete » 09 May 2022 09:50

Gracias Eulsus.
Un abrazo.
Es necesario para su distribución, dejar las descargas obtenidas en el incoming.
(Lo que es bueno para uno, es bueno para todos)

Avatar de Usuario
tonapar1
 
Mensajes: 6678
Registrado: 16 Oct 2012 20:19
Agradecido : 1396 veces
Agradecimiento recibido: 2425 veces

Re: Helen of Troy (John Kent Harrison, 2003) BDRip 1080p Dual SE-SI

Mensaje por tonapar1 » 10 May 2022 06:36

Muchas gracias por el ripeo a castleaco y a eulsus por anunciarlo. Un saludo a ambos.

Avatar de Usuario
eulsus
 
Mensajes: 3190
Registrado: 08 Abr 2015 01:14
Ubicación: La Palma
Agradecido : 3360 veces
Agradecimiento recibido: 4630 veces

Re: Helen of Troy (John Kent Harrison, 2003) BDRip 1080p Dual SE-SI

Mensaje por eulsus » 04 Ago 2022 18:54

castleaco escribió: He hecho una mejora importante en el subtítulo español:
eD2K link Helen.Of.Troy.2003.1080p.spa.eng.castleaco_v2.srt [79.4 Kb] 

Lo he emulizado para aquellos que no quieran descargar de nuevo el vídeo.
Imagen
Antonio García-Trevijano Forte (1927-2018)
"Para que yo sea libre, todos tienen que ser libres"

Abstención activa hasta que haya Libertad Colectiva

Avatar de Usuario
eulsus
 
Mensajes: 3190
Registrado: 08 Abr 2015 01:14
Ubicación: La Palma
Agradecido : 3360 veces
Agradecimiento recibido: 4630 veces

Re: Helen of Troy (John Kent Harrison, 2003) BDRip 1080p Dual SE-SI

Mensaje por eulsus » 09 Ago 2022 22:53

He actualizado la publicación con un nuevo archivo que incluye mejoras importantes en el subtítulo en español.
castleaco ha hecho otra ligera sincronización al subtítulo (además de las correcciones que había hecho antes en el subtítulo compartido en el mensaje inmediatamente anterior) y también ha transformado el audio inglés DTS a AAC vbr para así limar unos megas de peso al montaje.
Imagen
Antonio García-Trevijano Forte (1927-2018)
"Para que yo sea libre, todos tienen que ser libres"

Abstención activa hasta que haya Libertad Colectiva

Responder

Volver a “Telefilms”