Warning Shot (Buzz Kulik, 1966) SATRip VOSE

Puntuación
Sin
puntuar

Homicidio justificado

Largometrajes para televisión y/o vídeo que no se hayan estrenado en cine.

Moderador: mifune

Reglas del Foro
Norma de los tres años.
Responder
Avatar de Usuario
Gooffy
 
Mensajes: 2269
Registrado: 21 Oct 2012 15:35
Ubicación: Atlántida, Uruguay
Agradecido : 29 veces
Agradecimiento recibido: 55 veces

Estados Unidos Warning Shot (Buzz Kulik, 1966) SATRip VOSE

Mensaje por Gooffy » 21 Dic 2012 22:50

WARNING SHOT(Buzz Kulik, 1966)SATRip.VOse
HOMICIDIO JUSTIFICADO
Imagen
TV MOVIE
CRIMEN.DRAMA
USA
Imagen
IMDB
Imagen
EQUIPO TÉCNICO
Director: Buzz Kulik
Fotografía: Joseph F.Biroc
Música: Jerry Goldsmith
Argumento: Whit Masterson Novela: 711-Officer needs help.
ImagenImagenImagenImagen
INTÉRPRETES
David Janssen, Lilian Gish, Joan Collins, Eleanor Parker, Walter Pidgeon, George Sanders, Keenan Wynn, Ed Begley, Stefanie Powers, John Mitchum, Sam Wanamaker, Steve Allen,m Carroll O´Connor, John Garfield.Jr,
ImagenImagenImagenImagen
ARGUMENTO Y COMENTARIOS
En una redada policial, un sargento mata a un individuo que intenta matarle. La pistola del asesino desaparece y el muerto resulta ser un respetable miembro de la comunidad. El sargento lucha por descubrir lo sucedido, donde fué a dar el arma, y que hacía éste médico en el lugar. Película con múltiples estrellas invitadas, como puede verse en el reparto.
ImagenImagenImagenImagen
DATOS TÉCNICOS
Imagen
TRAILER
Imagen
ENLACES
eD2K link Warning Shot (BKulik, 1966)VOSE. DJanssen, LGish, EParker, WPidgeon, GSanders, JCollins.avi [699.97 Mb] 

mamma
 
Mensajes: 429
Registrado: 17 Oct 2012 13:39
Agradecimiento recibido: 87 veces

Re: Warning Shot (Buzz Kulik, 1966) SATRip VOSE

Mensaje por mamma » 03 Ene 2013 23:41

Muchas gracias Gooffy.
Un saludo

Avatar de Usuario
tonapar1
 
Mensajes: 6411
Registrado: 16 Oct 2012 20:19
Agradecido : 1338 veces
Agradecimiento recibido: 2299 veces

Re: Warning Shot (Buzz Kulik, 1966) SATRip VOSE

Mensaje por tonapar1 » 15 Ene 2013 19:02

Muchas gracias por el ripeo, Gooffy. Me la bajo por el reparto, bastante conocido

Avatar de Usuario
Juramentado
 
Mensajes: 1785
Registrado: 16 Oct 2012 20:58
Agradecido : 550 veces
Agradecimiento recibido: 636 veces

Re: Warning Shot (Buzz Kulik, 1966) SATRip VOSE

Mensaje por Juramentado » 11 May 2022 22:14

Warning.Shot.1967.1080p.AMZN.WEB-DL.DDP2.0.H.264-PLiSSKEN.mkv

Imagen

felipemarlou
 
Mensajes: 1886
Registrado: 10 Ago 2013 00:02
Agradecido : 1031 veces
Agradecimiento recibido: 3174 veces

Re: Warning Shot (Buzz Kulik, 1966) SATRip VOSE

Mensaje por felipemarlou » 12 May 2022 00:12

Juramentado escribió:
11 May 2022 22:14
Warning.Shot.1967.1080p.AMZN.WEB-DL.DDP2.0.H.264-PLiSSKEN.mkv

Imagen
Ese que dices (KG) va a: 29.970 fps (1h 49 min)

-------


El DVDRip de noirestyle dual con subtis.

Velocidad de cuadro : 23,976 fps (1h 39min)
Spoiler:
Warning.Shot.(Homicidio.Justificado).1967.DVDRip.SPA-ENG.Zv.(Spanish.English).DVB-Rip.XviD-AC3.by.Zv.mkv
Formato : Matroska
Tamaño del archivo : 1,54GIB
Tasa de bits total : 2 209Kbps
Ancho : 720pixeles
Alto : 416pixeles
Relación de aspecto : 1,731
Modo de velocidad de cuadro : Constante

eD2K link Warning.Shot.(Homicidio.Justificado).1967.DVDRip.SPA-ENG.Zv.(Spanish.English).DVB...iD-AC3.by.Zv.mkv [1.54 Gb] 

Yo creo que haciendo un apaño y cambiando el frame de audio, debería cuadrar perfectamente... subtis aparte.

Y ya tendríamos ese WEB-DL. 1080p Dual SE

Avatar de Usuario
Juramentado
 
Mensajes: 1785
Registrado: 16 Oct 2012 20:58
Agradecido : 550 veces
Agradecimiento recibido: 636 veces

Re: Warning Shot (Buzz Kulik, 1966) SATRip VOSE

Mensaje por Juramentado » 12 May 2022 17:41

El ripeo de PLiskKEn va a 23,976 fps
Spoiler:
General
Unique ID : 251049947289385847729874389068961986884 (0xBCDE760ACA4F7EC90E671CC2C31AB944)
Complete name : Warning.Shot.1967.1080p.AMZN.WEB-DL.DDP2.0.H.264-PLiSSKEN.mkv
Format : Matroska
Format version : Version 4
File size : 10.1 GiB
Duration : 1 h 39 min
Overall bit rate : 14.5 Mb/s
Encoded date : UTC 2021-09-20 14:12:42
Writing application : mkvmerge v61.0.0 ('So') 64-bit
Writing library : libebml v1.4.2 + libmatroska v1.6.4

Video
ID : 1
Format : AVC
Format/Info : Advanced Video Codec
Format profile : High@L4
Format settings : CABAC / 4 Ref Frames
Format settings, CABAC : Yes
Format settings, RefFrames : 4 frames
Codec ID : V_MPEG4/ISO/AVC
Duration : 1 h 39 min
Bit rate : 14.3 Mb/s
Width : 1 920 pixels
Height : 1 080 pixels
Display aspect ratio : 16:9
Frame rate mode : Constant
Frame rate : 23.976 (24000/1001) FPS
Color space : YUV
Chroma subsampling : 4:2:0
Bit depth : 8 bits
Scan type : Progressive
Bits/(Pixel*Frame) : 0.287
Stream size : 9.96 GiB (98%)
Default : Yes
Forced : No
Color range : Limited
Color primaries : BT.709
Transfer characteristics : BT.709
Matrix coefficients : BT.709

Audio
ID : 2
Format : E-AC-3
Format/Info : Enhanced AC-3
Commercial name : Dolby Digital Plus
Codec ID : A_EAC3
Duration : 1 h 39 min
Bit rate mode : Constant
Bit rate : 224 kb/s
Channel(s) : 2 channels
Channel layout : L R
Sampling rate : 48.0 kHz
Frame rate : 31.250 FPS (1536 SPF)
Compression mode : Lossy
Delay relative to video : -83 ms
Stream size : 160 MiB (2%)
Language : English
Service kind : Complete Main
Default : Yes
Forced : No

Text
ID : 3
Format : UTF-8
Codec ID : S_TEXT/UTF8
Codec ID/Info : UTF-8 Plain Text
Duration : 1 h 37 min
Bit rate : 78 b/s
Count of elements : 1616
Stream size : 56.4 KiB (0%)
Title : SDH
Language : English
Default : No
Forced : No
con lo que como dices, igual bastaría un delay.

felipemarlou
 
Mensajes: 1886
Registrado: 10 Ago 2013 00:02
Agradecido : 1031 veces
Agradecimiento recibido: 3174 veces

Re: Warning Shot (Buzz Kulik, 1966) SATRip VOSE

Mensaje por felipemarlou » 12 May 2022 21:10

Juramentado escribió:
12 May 2022 17:41
El ripeo de PLiskKEn va a 23,976 fps
Spoiler:
General
Unique ID : 251049947289385847729874389068961986884 (0xBCDE760ACA4F7EC90E671CC2C31AB944)
Complete name : Warning.Shot.1967.1080p.AMZN.WEB-DL.DDP2.0.H.264-PLiSSKEN.mkv
Format : Matroska
Format version : Version 4
File size : 10.1 GiB
Duration : 1 h 39 min
Overall bit rate : 14.5 Mb/s
Encoded date : UTC 2021-09-20 14:12:42
Writing application : mkvmerge v61.0.0 ('So') 64-bit
Writing library : libebml v1.4.2 + libmatroska v1.6.4

Video
ID : 1
Format : AVC
Format/Info : Advanced Video Codec
Format profile : High@L4
Format settings : CABAC / 4 Ref Frames
Format settings, CABAC : Yes
Format settings, RefFrames : 4 frames
Codec ID : V_MPEG4/ISO/AVC
Duration : 1 h 39 min
Bit rate : 14.3 Mb/s
Width : 1 920 pixels
Height : 1 080 pixels
Display aspect ratio : 16:9
Frame rate mode : Constant
Frame rate : 23.976 (24000/1001) FPS
Color space : YUV
Chroma subsampling : 4:2:0
Bit depth : 8 bits
Scan type : Progressive
Bits/(Pixel*Frame) : 0.287
Stream size : 9.96 GiB (98%)
Default : Yes
Forced : No
Color range : Limited
Color primaries : BT.709
Transfer characteristics : BT.709
Matrix coefficients : BT.709

Audio
ID : 2
Format : E-AC-3
Format/Info : Enhanced AC-3
Commercial name : Dolby Digital Plus
Codec ID : A_EAC3
Duration : 1 h 39 min
Bit rate mode : Constant
Bit rate : 224 kb/s
Channel(s) : 2 channels
Channel layout : L R
Sampling rate : 48.0 kHz
Frame rate : 31.250 FPS (1536 SPF)
Compression mode : Lossy
Delay relative to video : -83 ms
Stream size : 160 MiB (2%)
Language : English
Service kind : Complete Main
Default : Yes
Forced : No

Text
ID : 3
Format : UTF-8
Codec ID : S_TEXT/UTF8
Codec ID/Info : UTF-8 Plain Text
Duration : 1 h 37 min
Bit rate : 78 b/s
Count of elements : 1616
Stream size : 56.4 KiB (0%)
Title : SDH
Language : English
Default : No
Forced : No
con lo que como dices, igual bastaría un delay.
Pues si va al mismo frame, perfecto... quizás con un simple delay en MKVtoolnix se puede arreglar (no soy muy experto en sincros). Los subtis lo mismo, creo que los de subdivx no sincronizaban bien, con lo cual sería desincrustar el mks del susodcicho ripeo dual+subts de 1,54 Gb (autores: Asung /Zv en filbusteros) y anadirlo a la batidora del mkvtoolnix cara al paketizado final.

Avatar de Usuario
Juramentado
 
Mensajes: 1785
Registrado: 16 Oct 2012 20:58
Agradecido : 550 veces
Agradecimiento recibido: 636 veces

Re: Warning Shot (Buzz Kulik, 1966) SATRip VOSE

Mensaje por Juramentado » 16 May 2022 21:07

Bueno, dejo aquí montaje del ripeo 1080 WEB con el DVDrip de noirestyle.

El doblaje no lo he tocado (había una diferencia de entre 100 y 60 ms, con lo que no merecía la pena tocarlo).
Los subs españoles he ajustado un pelín en Subtitle Edit, aunque aún se podría ajustar algo más, pero de todas formas sin tocarlos se podía seguir bien la peli.

Los subs ingleses del WEBrip eran CC SDH, los he dejado y he creado unos normales.

Avatar de Usuario
yojimbo
 
Mensajes: 12267
Registrado: 18 Oct 2012 14:25
Agradecido : 11901 veces
Agradecimiento recibido: 3453 veces

Re: Warning Shot (Buzz Kulik, 1966) SATRip VOSE

Mensaje por yojimbo » 17 May 2022 20:31

Muchas gracias, Juramentado.

Avatar de Usuario
Forrest Gump
 
Mensajes: 1589
Registrado: 22 Oct 2012 09:29
Ubicación: Al este del paraíso.
Agradecido : 3571 veces
Agradecimiento recibido: 1054 veces

Re: Warning Shot (Buzz Kulik, 1966) SATRip VOSE

Mensaje por Forrest Gump » 26 Jun 2022 00:30

Juramentado escribió:
16 May 2022 21:07
... Los subs españoles he ajustado un pelín en Subtitle Edit, aunque aún se podría ajustar algo más, pero de todas formas sin tocarlos se podía seguir bien la peli...
¿Son estos subs de elrodri?: https://www.subdivx.com/X66XNjAzNzc3X-w ... -1967.html
De lo contrario, ¿podrías compartirlos aparte, Jura? Ya tengo el WEB-DL de PLiSSKEN, así que evitaría volver a descargarlo (no me interesa el doblaje).
Johnny: How many men have you forgotten?
Vienna: As many women as you've remembered.

Responder

Volver a “Telefilms”