Imagen
mifune

Cinefórum-Clásico es un foro de cine que utiliza las redes KAD (eMule)

Bienvenidos

Chibikko Remi to meiken Capi (Yûgo Serikawa, 1970) DVDRip Dual SE


Remi, sin familia

Imagen
Imagen
Imagen

SINOPSIS
Al volver Jerome a casa, herido de una pierna en París, decide vender a su hijo adoptivo, Remi, al cómico ambulan
...

Vistas: 110  •  Comentarios: 2  •  Escribir comentario

The Trail of '98 (Clarence Brown, 1928) DVDRip VOSE


THE TRAIL OF '98
(1928)


Imagen

IMDb


Producción
MGM

Director
Clarence Brown

Guion
Benjamin Glazer
Waldemar Young
Joseph Farnham

Argumento
La novela de
...

Vistas: 257  •  Comentarios: 12  •  Escribir comentario

All'ultimo sangue (Paolo Moffa 1968) BDRip 1080p VOSIng


ALL'ULTIMO SANGUE

Imagen

Año 1968
Duración 98 min.
País Italia
Dirección Paolo Moffa
Guion Paolo Moffa, Enzo Dell'Aquila
Música Nico Fidenco
Fotograf
...

Vistas: 206  •  Comentarios: 7  •  Escribir comentario

Deus e o Diabo na Terra do Sol (Glauber Rocha, 1964) DVDRIP, VOSE


Deus e o Diabo na Terra do Sol
"Dios y el diablo en la tierra del sol"
(Glauber Rocha, 1964)

Imagen



Imagen


Año de producción: 1964
País: Brasil
Dirección:
...

Vistas: 201  •  Comentarios: 6  •  Escribir comentario

Ulee's Gold (Victor, Nunez, 1997) BRRip 720p VOSE


En homenaje al recientemente fallecido Peter Fonda...

Imagen

Ulee's Gold (1997)
El oro de Ulises

Dirección: Victor Nunez
Guión: Victor Nuñez
Música: C
...

Vistas: 183  •  Comentarios: 6  •  Escribir comentario

Moonfleet (Fritz Lang, 1955) BDRip 1080p Dual SE


Previamente en esta web
Los contrabandistas de Moonfleet (Moonfleet) (Fritz Lang, 1955)

Imagen
Imagen
Imagen
Imagen
Imagen
Filmaffinity | IMDb

Guion: Margaret Fitts (Novela: J.
...

Vistas: 292  •  Comentarios: 7  •  Escribir comentario

Rubber Tires (Alan Hale, 1927) DVDRip VOSE


RUBBER TIRES
(1927)


Imagen

IMDb


Producción
DeMille Pictures Corporation

Director
Alan Hale

Guion
Tay Garnett
Zelda Sears

Argumento
Frank Condon

Foto
...

Vistas: 197  •  Comentarios: 7  •  Escribir comentario

The Pearl of Death (Roy William Neill, 1944) BDRip 720p VOSE + Aud Esp


Continúa el "Sherlock Film Festival"…

LA PERLA MALDITA (1944)

Imagen

Adaptación libre del relato “La aventura de los seis Napoleones” de Arthur Conan Do
...

Vistas: 157  •  Comentarios: 4  •  Escribir comentario

Golgo 13 (Osamu Dezaki, 1983) DVDRip Trial SI


Golgo 13 / Golgo 13: El Professional (1983)
94 min Japón Animación, Acción, Crime, Drama, Thriller
Director:
Osamu Dezaki
Guión:
Takao Saitô, Shûkei Nagasaka, Gregory Snegoff
Productor:
Yutaka Fujioka
Música:
Nobuo Inada
Fotografía:
Reparto: Tetsurô Sagawa, Gorô Naya, Toshiko Fujita, Kôsei Tomita

Sinopsis:

Sus enemigos le consideran indestructible y las mujeres irresistible. Es un asesino profesional que se mueve misteriosamente en el anonimato. Su nombre en clave es Golgo 13. Si tu nombre aparece entre su lista de objetivos, considérate muerto. Golgo 13 tiene una gran reputación al no haber incumplido nunca un contrato. ¿Pero, podrá sobrevivir a la coalición de fuerzas que forman el FBI, la CIA, el Pentágono y el ejército de los Estados Unidos? ¿Habrá encontrado Golgo 13 la horma de su zapato en los poderes sobrehumanos del "serpiente" y en los malvados gemelos psicópatas: Oro y Plata?. Primera película de animación basada en el manga de Takao Saitô. (FILMAFFINITY)


Datos técnicos:

CODE: Seleccionar todo

File size: 1.89 GiB
Duration: 1 h 33 min
Overall bit rate: 2 887 kb/s

Video: DVDRip
Format: x264
Format profile: High@L4.1
Format settings, CABAC: Yes
Format settings, RefFrames: 16 frames

Bit rate : 2 081 kb/s
Width: 720 pixels
Height: 480 pixels
Display aspect ratio: 16:9
Frame rate: 23.976 (24000/1001) FPS
Bit depth: 8 bits
Scan type: Progressive
Encoding settings: cabac=1 / ref=16 / deblock=1:1:1 / me=esa / subme=10 / me_range=16/ rc=crf / mbtree=1 / crf=16.0 / qcomp=0.60

Audio: #1 Castellano
Format: AC-3
Bit rate: 192 kb/s
Channel(s) : 2 channels
Channel positions: Front: L R
Sampling rate: 48.0 kHz
Stream size: 129 MiB (7%)

Audio: #2 Japonés
Format: AC-3
Bit rate: 192 kb/s
Channel(s): 2 channels
Channel positions: Front: L R
Sampling rate: 48.0 kHz
Stream size: 129 MiB (7%)

Audio: #3 Inglés
Format: AC-3
Bit rate: 224 kb/s
Channel(s): 2 channels
Channel positions: Front: L R
Sampling rate: 48.0 kHz
Stream size: 150 MiB (7%)

Audio #4 Commentary With Director Osamu Dezaki
Format: AC-3
Bit rate: 192 kb/s
Channel(s): 2 channels
Channel positions: Front: L R
Sampling rate: 48.0 kHz
Stream size: 129 MiB (7%)

Subtítulos: Inglés Vob/idx

Capturas:

Imagen Imagen Imagen Imagen
eD2K link 1983.GOLGO.13.DVDRip.Dual.x264.mkv [1.89 Gb] 
https://www.subdivx.com/X6XNDQ1NTc3X-go ... -1983.html
...

Vistas: 200  •  Comentarios: 12  •  Escribir comentario

No Time for Comedy (William Keghley, 1940) DVDRip VOSE


ernestosi en DivXclásico

Imagen
Enlace IMBd

Título original : No Time for Comedy

Año: 1940
Duración: 93 min.
País: Estados Unidos
Dirección: William Ke
...

Vistas: 201  •  Comentarios: 9  •  Escribir comentario

Sing You Sinners (Wesley Ruggles, 1938) DVDRip VOSE


ernestosi en DivX Clásico


Imagen
Título original: Sing, You Sinners
Año: 1938
Duración: 88 min.
País: Estados Unidos
Dirección: Wesley Rug
...

Vistas: 156  •  Comentarios: 2  •  Escribir comentario

Cross Creek (Martin Ritt, 1983) DVDRip Dual SE/I



Imagen

Cross Creek (1983)
Los mejores años de mi vida


Director: Martin Ritt
Guión: Dalene Young, Marjorie Kinnan Rawlings (book)
Productor: Terence Nel
...

Vistas: 201  •  Comentarios: 7  •  Escribir comentario


  • ¿Quién está conectado?
  • En total hay 20 usuarios conectados :: 2 registrados, 0 ocultos y 18 invitados (basados en usuarios activos en los últimos 5 minutos)
    La mayor cantidad de usuarios identificados fue 275 el 22 Ago 2019, 13:37

    Usuarios registrados: gingerlynn, Google [Bot]





  •  Ci-Cl Archivo
  • Imagen

    Archivo Cine-Clásico
    Acceso público

  •  Cumpleaños

  •  Buscar
  • Búsqueda avanzada


  •  Últimos miembros

  •  Estilo del foro


  •  Estadísticas
  • Totales
    Mensajes totales 213618
    Temas totales 15890
    Anuncios totales: 73
    Notas totales: 37
    Adjuntos totales: 0

    Temas por día: 6
    Mensajes por día: 84
    Usuarios por día: 0
    Temas por usuario: 14
    Mensajes por usuario: 190
    Mensajes por tema: 13

    Usuarios totales 1124
    Nuestro usuario más reciente es Godot

  •  Enlace con nosotros
  • Por favor, siéntase libre de enlazar a Cinefórum-Clásico. Utilice el siguiente código HTML:



  • Nombre de Usuario:


    Contraseña:


    Recordarme


  •  Cinefórum-Clásico recomienda

  •  Cinefórum-Clásico recomienda

  •  Cinefórum-Clásico recomienda
  • Imagen

    Imagen

    Imagen

    Imagen

    Imagen

    Revistas de Cine por Franxesco
    (clic en cada imagen)