Imagen
chuschao's
Cinefórum-Clásico es un foro de cine que utiliza las redes KAD (eMule)
Bienvenidos

Al Jennings of Oklahoma (Ray Nazarro, 1951) DVDRip VOSF


AL JENNINGS OF OKLAHOMA

Imagen
Imagen
Imagen

Título original: Al Jennings of Oklahoma
Director: Ray Nazarro
Reparto: Dan Duryea, Gale Storm, Dick Foran, Gloria Henry, Guinn 'Big Boy' Williams, Raymond Greenleaf, Stanley Andrews, John Ridgely, James Millican, Harry Shannon, Helen Brown, Robert Bice, George J. Lewis, Jimmie Dodd, Eddie Parker, James Griffith, William 'Bill' Phillips, John Dehner, William Bailey, Charles Meredith, Louis Jean Heydt, Harry Cording, Theresa Harris
Guion: George Bricker (Libro: Al Jennings, Will Irwin)
Fotografía: W. Howard Greene
Año: 1951
País: USA
Duración: 79 min.
Producción: Columbia Pictures
Género: Western


Argumento: Al Jennings, un abogado con un futuro prometedor, se ve obligado a dejar Kansas tras participar en una trifulca. Se instala en Oklahoma y cambiará su forma de vida por completo.




ImagenImagen
ImagenImagen
ImagenImagen
ImagenImagen

Datos Técnicos:
Spoiler:
Format : Matroska
Format version : Version 4 / Version 2
File size : 1.18 GiB
Duration : 1 h 14 min
Overall bit rate : 2 250 kb/s
Encoded date : UTC 2020-04-06 07:52:43
Writing application : mkvmerge v6.5.0 ('Isn't she lovely') built on Oct 20 2013 12:50:05
Writing library : libebml v1.3.0 + libmatroska v1.4.1

Video
ID : 1
Format : AVC
Format/Info : Advanced Video Codec
Format profile : High@L4.1
Format settings, CABAC : Yes
Format settings, ReFrames : 16 frames
Codec ID : V_MPEG4/ISO/AVC
Duration : 1 h 14 min
Bit rate : 2 013 kb/s
Width : 540 pixels
Height : 574 pixels
Display aspect ratio : 4:3
Frame rate mode : Constant
Frame rate : 25.000 FPS
Color space : YUV
Chroma subsampling : 4:2:0
Bit depth : 8 bits
Scan type : Progressive
Bits/(Pixel*Frame) : 0.260
Stream size : 1.05 GiB (89%)
Writing library : x264 core 129 r2245+729M 1a52e03
Encoding settings : cabac=1 / ref=16 / deblock=1:-1:-1 / analyse=0x3:0x133 / me=umh / subme=10 / psy=1 / fade_compensate=0.00 / psy_rd=1.00:0.15 / mixed_ref=1 / me_range=24 / chroma_me=1 / trellis=2 / 8x8dct=1 / cqm=0 / deadzone=21,11 / fast_pskip=1 / chroma_qp_offset=-3 / threads=6 / lookahead_threads=1 / sliced_threads=0 / nr=0 / decimate=1 / interlaced=0 / bluray_compat=0 / constrained_intra=0 / fgo=0 / bframes=8 / b_pyramid=2 / b_adapt=2 / b_bias=0 / direct=3 / weightb=1 / open_gop=0 / weightp=2 / keyint=250 / keyint_min=25 / scenecut=40 / intra_refresh=0 / rc_lookahead=60 / rc=crf / mbtree=1 / crf=17.0 / qcomp=0.60 / qpmin=0 / qpmax=69 / qpstep=4 / ip_ratio=1.40 / aq=1:1.00
Language : English
Default : Yes
Forced : No

Audio
ID : 2
Format : AC-3
Format/Info : Audio Coding 3
Mode extension : CM (complete main)
Format settings, Endianness : Big
Codec ID : A_AC3
Duration : 1 h 14 min
Bit rate mode : Constant
Bit rate : 192 kb/s
Channel(s) : 2 channels
Channel positions : Front: L R
Sampling rate : 48.0 kHz
Frame rate : 31.250 FPS (1536 spf)
Compression mode : Lossy
Stream size : 103 MiB (9%)
Default : Yes
Forced : No

Text
ID : 3
Format : VobSub
Muxing mode : zlib
Codec ID : S_VOBSUB
Codec ID/Info : Picture based subtitle format used on DVDs
Language : French
Default : Yes
Forced : No


Ripeo de firejuice:

:flecha: eD2K link al.jennings.of.oklahoma.1951.dvdrip.x264.ac3.mkv [1.18 Gb] 

Subtítulos en francés dentro del archivo mkv.




Imagen
Al Jennings

Como regalo, os dejo una de las películas que protagonizó el propio Al Jennings, en 1908:

eD2K link The Bank Robbery (William Tilghman, 1908) -- Al J. Jennings.mp4 [1.02 Gb] 





:hi:

Vistas: 75  •  Comentarios: 2  •  Escribir comentario [ Volver ]

  • ¿Quién está conectado?




  •  Ci-Cl Archivo
  • Imagen

    Archivo Cine-Clásico
    Acceso público

  •  Cumpleaños

  •  Buscar
  • Búsqueda avanzada


  •  Últimos miembros

  •  Estilo del foro


  •  Estadísticas
  • Totales
    Mensajes totales 224062
    Temas totales 16672
    Anuncios totales: 74
    Notas totales: 37
    Adjuntos totales: 0

    Temas por día: 6
    Mensajes por día: 81
    Usuarios por día: 0
    Temas por usuario: 15
    Mensajes por usuario: 199
    Mensajes por tema: 13

    Usuarios totales 1126
    Nuestro usuario más reciente es Moodlebug

  • Nombre de Usuario:


    Contraseña:


    Recordarme


  •  Cinefórum-Clásico recomienda

  •  Cinefórum-Clásico recomienda

  •  Cinefórum-Clásico recomienda
  • Imagen

    Imagen

    Imagen

    Imagen

    Imagen

    Revistas de Cine por Franxesco
    (clic en cada imagen)

  •  Enlace con nosotros
  • Por favor, siéntase libre de enlazar a Cinefórum-Clásico. Utilice el siguiente código HTML: