Imagen
TENGAN CUIDADO AHÍ FUERA
Cinefórum-Clásico es un foro de cine que utiliza las redes KAD (eMule)
Bienvenidos

Bébé court après sa montre (Louis Feuillade, 1911) WEBRip VOSE



CICLO “TESOROS PATHÉ-GAUMONT” (87)


BÉBÉ COURT APRÈS SA MONTRE
(Bebé corre tras su reloj)


Imagen
Imagen
Imagen

Título original: Bébé court après sa montre
Director: Louis Feuillade
Reparto: René Dary, Renée Carl
Guion: Henry de Brisay
Año: 1911
País: Francia
Duración: 9 min.
Producción: Gaumont
Género: Comedia


Argumento: A Bebé le roban el reloj, pero como el ladrón pasa por ser un hombre honesto, Bebé tiene que solucionarlo por su cuenta.




ImagenImagen
ImagenImagen

Datos Técnicos:
Spoiler:
Format : MPEG-4
Format profile : Base Media
Codec ID : isom (isom/iso2/avc1/mp41)
File size : 54.0 MiB
Duration : 9 min
Overall bit rate : 802 kb/s
Writing application : Lavf54.63.104

Video
ID : 1
Format : AVC
Format/Info : Advanced Video Codec
Format profile : High@L3
Format settings, CABAC : Yes
Format settings, ReFrames : 4 frames
Codec ID : avc1
Codec ID/Info : Advanced Video Coding
Duration : 9 min
Bit rate : 699 kb/s
Width : 640 pixels
Height : 480 pixels
Display aspect ratio : 4:3
Frame rate mode : Constant
Frame rate : 25.000 FPS
Color space : YUV
Chroma subsampling : 4:2:0
Bit depth : 8 bits
Scan type : Progressive
Bits/(Pixel*Frame) : 0.091
Stream size : 47.1 MiB (87%)
Writing library : x264 core 133
Encoding settings : cabac=1 / ref=3 / deblock=1:0:0 / analyse=0x3:0x113 / me=hex / subme=7 / psy=1 / psy_rd=1.00:0.00 / mixed_ref=1 / me_range=16 / chroma_me=1 / trellis=1 / 8x8dct=1 / cqm=0 / deadzone=21,11 / fast_pskip=1 / chroma_qp_offset=-2 / threads=6 / lookahead_threads=1 / sliced_threads=0 / nr=0 / decimate=1 / interlaced=0 / bluray_compat=0 / constrained_intra=0 / bframes=3 / b_pyramid=2 / b_adapt=1 / b_bias=0 / direct=1 / weightb=1 / open_gop=0 / weightp=2 / keyint=250 / keyint_min=25 / scenecut=40 / intra_refresh=0 / rc_lookahead=40 / rc=abr / mbtree=1 / bitrate=699 / ratetol=1.0 / qcomp=0.60 / qpmin=0 / qpmax=69 / qpstep=4 / ip_ratio=1.40 / aq=1:1.00

Audio
ID : 2
Format : AAC
Format/Info : Advanced Audio Codec
Format profile : LC
Codec ID : 40
Duration : 9 min
Bit rate mode : Constant
Bit rate : 96.0 kb/s
Channel(s) : 2 channels
Channel positions : Front: L R
Sampling rate : 44.1 kHz
Frame rate : 43.066 FPS (1024 spf)
Compression mode : Lossy
Stream size : 6.46 MiB (12%)
Default : Yes
Alternate group : 1


:flecha: eD2K link Bebé court apres sa montre 1911.mp4 [54.02 Mb] 

Subtítulos en español de Eddie Constanti:

eD2K link Bebé court apres sa montre 1911.srt [401 Bytes] 






:hi:

Vistas: 69  •  Comentarios: 5  •  Escribir comentario [ Volver ]

  • ¿Quién está conectado?




  •  Ci-Cl Archivo
  • Imagen

    Archivo Cine-Clásico
    Acceso público

  •  Cumpleaños

  •  Buscar
  • Búsqueda avanzada


  •  Últimos miembros

  •  Estilo del foro


  •  Estadísticas
  • Totales
    Mensajes totales 228223
    Temas totales 17122
    Anuncios totales: 76
    Notas totales: 36
    Adjuntos totales: 0

    Temas por día: 6
    Mensajes por día: 81
    Usuarios por día: 0
    Temas por usuario: 15
    Mensajes por usuario: 203
    Mensajes por tema: 13

    Usuarios totales 1127
    Nuestro usuario más reciente es François the Postman

  • Nombre de Usuario:


    Contraseña:


    Recordarme


  •  Cinefórum-Clásico recomienda

  •  Cinefórum-Clásico recomienda

  •  Cinefórum-Clásico recomienda
  • Imagen

    Imagen

    Imagen

    Imagen

    Imagen

    Revistas de Cine por Franxesco
    (clic en cada imagen)

  •  Enlace con nosotros
  • Por favor, siéntase libre de enlazar a Cinefórum-Clásico. Utilice el siguiente código HTML: