Imagen
TENGAN CUIDADO AHÍ FUERA
Cinefórum-Clásico es un foro de cine que utiliza las redes KAD (eMule)
Bienvenidos

The Night My Number Came Up (Leslie Norman, 1955) BDRip 1080p VO SE


Previamente en esta web
El precio del miedo (The Night My Number Came Up) (Leslie Norman, 1955)

Imagen
Imagen
Imagen
Filmaffinity | IMDb

Guion: R.C. Sherriff (Artículo: Victor Goddard)
Música: Malcolm Arnold
Fotografía: Lionel Banes (B&W)
Reparto: Michael Redgrave, Sheila Sim, Alexander Knox, Denholm Elliott, Ursula Jeans, Ralph Truman, Michael Hordern, Nigel Stock, Bill Kerr, Alfie Bass, George Rose, Victor Maddern, David Orr, David Yates, Doreen Aris
Productora: Ealing Studios
Género: Thriller | Intriga | Aviones

Sinopsis:
Un piloto sueña con un accidente de avión en Japón. Al día siguiente recibe la orden de hacer un vuelo a Japón, y poco a poco todo lo que ha soñado va sucediendo en la realidad... (FILMAFFINITY)



Gracias a quienes compartieron el BD.
Spoiler:
Dadas las (extrañas) circunstancias en las que actualmente parecemos movernos en el mundo p2p (en especial, en lo relativo a los trackers privados), de aquí en adelante haré "agradecimientos genéricos" a quienes compartieron la fuente original y no enlazaré a dicha fuente original en mis posts.
Disculpen las molestias
Detalles de la edición


------------------------------

Configuración del ripeo (vídeo / audio):

x264:
"C:\x264.exe" --preset veryslow --tune film --crf 19.0 --level 4.1 --output "C:\mi_ripeo.mkv" "C:\mi_script.avs"


QAAC (para AAC):
qaac -V 127 --ignorelength --adts --no-delay -o

------------------------------



Imagen
Imagen
Imagen
Imagen
Imagen
Imagen
Imagen
Imagen
Imagen
Imagen
Imagen
Imagen

CODE: Seleccionar todo

 
Format : Matroska 
Format version : Version 4 
File size : 12.1 GiB 
Duration : 1 h 35 min 
Overall bit rate : 18.2 Mb/s 
Encoded date : UTC 2020-05-29 14:59:49 
Writing application : mkvmerge v46.0.0 ('No Deeper Escape') 64-bit 
Writing library : libebml v1.3.10 + libmatroska v1.5.2 

Video 
ID : 1 
Format : AVC 
Format/Info : Advanced Video Codec 
Format profile : High@L4.1 
Format settings : CABAC / 5 Ref Frames 
Format settings, CABAC : Yes 
Format settings, Reference frames : 5 frames 
Codec ID : V_MPEG4/ISO/AVC 
Duration : 1 h 35 min 
Bit rate : 18.1 Mb/s 
Width : 1 440 pixels 
Height : 1 080 pixels 
Display aspect ratio : 4:3 
Frame rate mode : Constant 
Frame rate : 23.976 (24000/1001) FPS 
Color space : YUV 
Chroma subsampling : 4:2:0 
Bit depth : 8 bits 
Scan type : Progressive 
Bits/(Pixel*Frame) : 0.484 
Stream size : 12.1 GiB (99%) 
Writing library : x264 core 160 r3000 33f9e14 
Encoding settings : cabac=1 / ref=5 / deblock=1:-1:-1 / analyse=0x3:0x133 / me=umh / subme=10 / psy=1 / psy_rd=1.00:0.15 / mixed_ref=1 / me_range=24 / chroma_me=1 / trellis=2 / 8x8dct=1 / cqm=0 / deadzone=21,11 / fast_pskip=1 / chroma_qp_offset=-3 / threads=6 / lookahead_threads=1 / sliced_threads=0 / nr=0 / decimate=1 / interlaced=0 / bluray_compat=0 / constrained_intra=0 / bframes=8 / b_pyramid=2 / b_adapt=2 / b_bias=0 / direct=3 / weightb=1 / open_gop=0 / weightp=2 / keyint=250 / keyint_min=23 / scenecut=40 / intra_refresh=0 / rc_lookahead=60 / rc=crf / mbtree=1 / crf=19.0 / qcomp=0.60 / qpmin=0 / qpmax=69 / qpstep=4 / ip_ratio=1.40 / aq=1:1.00 
Language : English 
Default : Yes 
Forced : No 

Audio 
ID : 2 
Format : AAC LC 
Format/Info : Advanced Audio Codec Low Complexity 
Codec ID : A_AAC-2 
Duration : 1 h 35 min 
Bit rate : 117 kb/s 
Channel(s) : 2 channels 
Channel layout : L R 
Sampling rate : 48.0 kHz 
Frame rate : 46.875 FPS (1024 SPF) 
Compression mode : Lossy 
Stream size : 79.8 MiB (1%) 
Language : English 
Writing library : qaac 2.68, CoreAudioToolbox 7.10.9.0
Encoding settings : qaac -V 127 --ignorelength --adts --no-delay -o
VBR min./avg./max. : 12 / 119 / 358 Kb/s. 
Duration.......... : 5736.832 sec., (1h. 35m. 36.832s.)
Default : Yes 
Forced : No 

Text #1 
ID : 3 
Format : UTF-8 
Codec ID : S_TEXT/UTF8 
Codec ID/Info : UTF-8 Plain Text 
Duration : 1 h 35 min 
Bit rate : 91 b/s 
Count of elements : 1592 
Stream size : 64.0 KiB (0%) 
Language : Spanish 
Default : Yes 
Forced : No 

Text #2 
ID : 4 
Format : UTF-8 
Codec ID : S_TEXT/UTF8 
Codec ID/Info : UTF-8 Plain Text 
Duration : 1 h 32 min 
Bit rate : 91 b/s 
Count of elements : 1734 
Stream size : 61.8 KiB (0%) 
Language : English 
Default : No 
Forced : No 

Text #3 
ID : 5 
Format : VobSub 
Muxing mode : zlib 
Codec ID : S_VOBSUB 
Codec ID/Info : Picture based subtitle format used on DVDs 
Duration : 1 h 32 min 
Bit rate : 10.3 kb/s 
Count of elements : 1734 
Stream size : 6.79 MiB (0%) 
Title : English Vobsubs 
Language : English 
Default : No 
Forced : No 

Menu 
00:00:00.000 : :Cpt. 01 
00:07:05.852 : :Cpt. 02 
00:21:09.820 : :Cpt. 03 
00:29:20.310 : :Cpt. 04 
00:39:44.309 : :Cpt. 05 
00:55:38.136 : :Cpt. 06 
01:10:52.091 : :Cpt. 07 
01:24:13.100 : :Cpt. 08




:arrow: BDRip V.O. 1080p, con subtítulos en español e inglés en el contenedor MKV (12.14 GBs)

:arrow: Subtítulos por separado
, por si alguien los necesita para... (89 KBs)


Los subtítulos en español son los que en su momento creó hammett (muchas gracias, una vez más), levemente corregidos y resincronizados línea a línea para este ripeo.





:arrow: Cómo buscar archivos en emule. Necesario para buscar lo anterior...





----------------------------------------------------


Imagen Imagen

Última versión del codec x264 (inglés) | Cómo crear BDRips MKV/x264 con UsEac3To + MeGui (español)
Manual de ripeo con x264 en línea de comandos (español) (1) (2) (3) | Parámetros de codificación (inglés)
Matroska en wikipedia (español) | MKVToolnix, herramientas de edición para matroska (inglés) | Añadir cadenas de audio o subtítulos con MKVToolnix (español)
gMKVExtractGUI (inglés) | MKVExtractGui (inglés) | Manual de extracción de cadenas de audio/vídeo/subtítulos en MKV (español)

Vistas: 107  •  Comentarios: 2  •  Escribir comentario [ Volver ]

  • ¿Quién está conectado?
  • En total hay 7 usuarios conectados :: 0 registrados, 0 ocultos y 7 invitados (basados en usuarios activos en los últimos 5 minutos)
    La mayor cantidad de usuarios identificados fue 132 el 06 May 2020, 04:00

    Usuarios registrados: No hay usuarios registrados visitando el Foro





  •  Ci-Cl Archivo
  • Imagen

    Archivo Cine-Clásico
    Acceso público

  •  Cumpleaños

  •  Buscar
  • Búsqueda avanzada


  •  Últimos miembros

  •  Estilo del foro


  •  Estadísticas
  • Totales
    Mensajes totales 228257
    Temas totales 17127
    Anuncios totales: 76
    Notas totales: 36
    Adjuntos totales: 0

    Temas por día: 6
    Mensajes por día: 81
    Usuarios por día: 0
    Temas por usuario: 15
    Mensajes por usuario: 203
    Mensajes por tema: 13

    Usuarios totales 1127
    Nuestro usuario más reciente es François the Postman

  • Nombre de Usuario:


    Contraseña:


    Recordarme


  •  Cinefórum-Clásico recomienda

  •  Cinefórum-Clásico recomienda

  •  Cinefórum-Clásico recomienda
  • Imagen

    Imagen

    Imagen

    Imagen

    Imagen

    Revistas de Cine por Franxesco
    (clic en cada imagen)

  •  Enlace con nosotros
  • Por favor, siéntase libre de enlazar a Cinefórum-Clásico. Utilice el siguiente código HTML: