Imagen
chuschao's
Cinefórum-Clásico es un foro de cine que utiliza las redes KAD (eMule)

Bienvenidos

The Tijuana Story (László Kardos, 1957) BDRip 1080p VO SE


The Tijuana Story (László Kardos, 1957)

Imagen
Imagen
Imagen
Filmaffinity | IMDb

Guion: Lou Morheim
Música: Mischa Bakaleinikoff
Fotografía: Benjamin H. Kline (B&W)
Reparto: James Darren, Rodolfo Acosta, Robert McQueeney, Jean Willes, Joy Stoner, Paul Newlan, George E. Stone, Michael Fox, Robert Blake, William Fawcett, Paul Coates
Productora: Clover Productions
Género: Drama | Cine negro | Crimen

Sinopsis:
Un valiente director de periódico se enfrenta a la mafia de Tijuana, dispuesta a acabar con cualquiera que intente detenerla. (FILMAFFINITY)

Storyline:

Tijuana is a city ridden with crime, vice and corruption, with the local Mexican mob stopping anyone who attempts to clean up the city. However, the mob meets its match when it is challenged by a brave newspaper editor.
Written by Jim Riecken <youroldpaljim@yahoo.com>
Gracias a quienes compartieron el BD.
Spoiler:
Dadas las (extrañas) circunstancias en las que actualmente parecemos movernos en el mundo p2p (en especial, en lo relativo a los trackers privados), de aquí en adelante haré "agradecimientos genéricos" a quienes compartieron la fuente original y no enlazaré a dicha fuente original en mis posts.
Disculpen las molestias
Detalles de la edición


------------------------------

Configuración del ripeo (vídeo / audio):

x264:
"C:\x264.exe" --preset veryslow --tune film --crf 18.6 --qcomp 0.62 --deblock -2:-2 --no-chroma-me --level 4.1 --output "C:\mi_ripeo.mkv" "C:\mi_script.avs"


QAAC (para AAC):
qaac -V 127 --ignorelength --adts --no-delay -o

------------------------------



Imagen
Imagen
Imagen
Imagen
Imagen
Imagen
Imagen
Imagen
Imagen
Imagen


CODE: Seleccionar todo

 
Format : Matroska 
Format version : Version 4 
File size : 5.74 GiB 
Duration : 1 h 12 min 
Overall bit rate : 11.3 Mb/s 
Writing application : mkvmerge v37.0.0 ('Leave It') 64-bit 
Writing library : libebml v1.3.9 + libmatroska v1.5.2 

Video 
ID : 1 
Format : AVC 
Format/Info : Advanced Video Codec 
Format profile : High@L4.1 
Format settings : CABAC / 4 Ref Frames 
Format settings, CABAC : Yes 
Format settings, Reference frames : 4 frames 
Codec ID : V_MPEG4/ISO/AVC 
Duration : 1 h 12 min 
Bit rate : 11.2 Mb/s 
Width : 1 920 pixels 
Height : 1 036 pixels 
Display aspect ratio : 1.85:1 
Frame rate mode : Constant 
Frame rate : 23.976 (24000/1001) FPS 
Color space : YUV 
Chroma subsampling : 4:2:0 
Bit depth : 8 bits 
Scan type : Progressive 
Bits/(Pixel*Frame) : 0.234 
Stream size : 5.67 GiB (99%) 
Writing library : x264 core 157 r2969 d4099dd 
Encoding settings : cabac=1 / ref=4 / deblock=1:-2:-2 / analyse=0x3:0x133 / me=umh / subme=10 / psy=1 / psy_rd=1.00:0.15 / mixed_ref=1 / me_range=24 / chroma_me=0 / trellis=2 / 8x8dct=1 / cqm=0 / deadzone=21,11 / fast_pskip=1 / chroma_qp_offset=-3 / threads=6 / lookahead_threads=1 / sliced_threads=0 / nr=0 / decimate=1 / interlaced=0 / bluray_compat=0 / constrained_intra=0 / bframes=8 / b_pyramid=2 / b_adapt=2 / b_bias=0 / direct=3 / weightb=1 / open_gop=0 / weightp=2 / keyint=250 / keyint_min=23 / scenecut=40 / intra_refresh=0 / rc_lookahead=60 / rc=crf / mbtree=1 / crf=18.6 / qcomp=0.62 / qpmin=0 / qpmax=69 / qpstep=4 / ip_ratio=1.40 / aq=1:1.00 
Language : English 
Default : Yes 
Forced : No 

Audio 
ID : 2 
Format : AAC LC 
Format/Info : Advanced Audio Codec Low Complexity 
Codec ID : A_AAC-2 
Duration : 1 h 12 min 
Bit rate : 138 kb/s 
Channel(s) : 1 channel 
Channel layout : C 
Sampling rate : 48.0 kHz 
Frame rate : 46.875 FPS (1024 SPF) 
Compression mode : Lossy 
Stream size : 71.6 MiB (1%) 
Language : English 
Writing library : qaac 2.68, CoreAudioToolbox 7.10.9.0
Encoding settings : qaac -V 127 --ignorelength --adts --no-delay -o
VBR min./avg./max. : 4 / 140 / 243 Kb/s. 
Duration.......... : 4357.12 sec., (1h. 12m. 37.12s.)
Default : Yes 
Forced : No 

Text #1 
ID : 3 
Format : UTF-8 
Codec ID : S_TEXT/UTF8 
Codec ID/Info : UTF-8 Plain Text 
Duration : 1 h 12 min 
Bit rate : 90 b/s 
Count of elements : 1219 
Stream size : 48.2 KiB (0%) 
Language : Spanish 
Default : Yes 
Forced : No 

Text #2 
ID : 4 
Format : UTF-8 
Codec ID : S_TEXT/UTF8 
Codec ID/Info : UTF-8 Plain Text 
Duration : 1 h 12 min 
Bit rate : 84 b/s 
Count of elements : 1372 
Stream size : 44.8 KiB (0%) 
Language : English 
Default : No 
Forced : No 

Text #3 
ID : 5 
Format : UTF-8 
Codec ID : S_TEXT/UTF8 
Codec ID/Info : UTF-8 Plain Text 
Duration : 1 h 12 min 
Bit rate : 93 b/s 
Count of elements : 1487 
Stream size : 49.6 KiB (0%) 
Title : English SDH 
Language : English 
Default : No 
Forced : No 

Menu 
00:00:00.000 : en:Cpt. 01 
00:02:51.546 : en:Cpt. 02 
00:04:22.762 : en:Cpt. 03 
00:08:46.567 : en:Cpt. 04 
00:18:53.298 : en:Cpt. 05 
00:29:49.913 : en:Cpt. 06 
00:36:05.163 : en:Cpt. 07 
00:43:34.653 : en:Cpt. 08 
00:49:23.335 : en:Cpt. 09 
00:58:06.774 : en:Cpt. 10 
01:06:39.954 : en:Cpt. 11




:arrow: BDRip V.O. 1080p, con subtítulos en español e inglés en el contenedor MKV (5.74 GBs)

:arrow: Subtítulos por separado
, por si alguien los necesita para... (109 KBs)


Los subtítulos en español son los traducidos por hammett (... y otra) para este ripeo, con el excelso nivel de calidad habitual, a partir de unos English subs resincronizados. hammett también hizo bastantes reajustes de líneas.




:arrow: Cómo buscar archivos en emule. Necesario para buscar lo anterior...





----------------------------------------------------


Imagen Imagen

Última versión del codec x264 (inglés) | Cómo crear BDRips MKV/x264 con UsEac3To + MeGui (español)
Manual de ripeo con x264 en línea de comandos (español) (1) (2) (3) | Parámetros de codificación (inglés)
Matroska en wikipedia (español) | MKVToolnix, herramientas de edición para matroska (inglés) | Añadir cadenas de audio o subtítulos con MKVToolnix (español)
gMKVExtractGUI (inglés) | MKVExtractGui (inglés) | Manual de extracción de cadenas de audio/vídeo/subtítulos en MKV (español)

Vistas: 169  •  Comentarios: 4  •  Escribir comentario [ Volver ]

  • ¿Quién está conectado?
  • En total hay 228 usuarios conectados :: 1 registrado, 1 oculto y 226 invitados (basados en usuarios activos en los últimos 5 minutos)
    La mayor cantidad de usuarios identificados fue 709 el 30 Sep 2019, 22:35

    Usuarios registrados: a.l.b.e.r.t.o





  •  Ci-Cl Archivo
  • Imagen

    Archivo Cine-Clásico
    Acceso público

  •  Cumpleaños

  •  Buscar
  • Búsqueda avanzada


  •  Últimos miembros

  •  Estilo del foro


  •  Estadísticas
  • Totales
    Mensajes totales 215532
    Temas totales 16038
    Anuncios totales: 73
    Notas totales: 37
    Adjuntos totales: 0

    Temas por día: 6
    Mensajes por día: 83
    Usuarios por día: 0
    Temas por usuario: 14
    Mensajes por usuario: 192
    Mensajes por tema: 13

    Usuarios totales 1125
    Nuestro usuario más reciente es Colibrí

  •  Enlace con nosotros
  • Por favor, siéntase libre de enlazar a Cinefórum-Clásico. Utilice el siguiente código HTML:



  • Nombre de Usuario:


    Contraseña:


    Recordarme


  •  Cinefórum-Clásico recomienda

  •  Cinefórum-Clásico recomienda

  •  Cinefórum-Clásico recomienda
  • Imagen

    Imagen

    Imagen

    Imagen

    Imagen

    Revistas de Cine por Franxesco
    (clic en cada imagen)