Imagen
TENGAN CUIDADO AHÍ FUERA
Cinefórum-Clásico es un foro de cine que utiliza las redes KAD (eMule)
Bienvenidos

Otrávené světlo (Jan S. Kolár & Karel Lamac, 1921) WEBRip 1080p VOSE


OTRÁVENÉ SVĚTLO
(La luz envenenada)


Imagen
Imagen
Imagen

Título original: Otrávené světlo
Director: Jan S. Kolár, Karel Lamac
Reparto: Karel Fiala, Anny Ondra, Karel Lamac, Jindrich Lhoták, Emil Artur Longen, Jan S. Kolár, Premysl Prazský, Antonín Marek, Josef Sváb-Malostranský, Alfred Bastýr, Václav Prazský, Vojtech Záhorík, Jindrich Edl, Jirina Janderová, Josef Blazek, Jirí Hoyer, Mása Kolárová, Anna Lamacová-Karinská
Guion: Jan S. Kolár, Karel Lamac
Fotografía: Otto Heller
Año: 1921
País: Checoslovaquia
Duración: 61 min.
Producción: Kalos
Género: Intriga


Argumento: El inventor Oskar Grant ha creado un aparato que convierte la noche en día, mediante un procedimiento lumínico. Como es lógico, un prodigio como éste es ambicionado por instituciones y estados, pero también por maleantes que aspiran a dominar el mundo con él.



ImagenImagen
ImagenImagen
ImagenImagen
ImagenImagen

Datos Técnicos:
Spoiler:
Format : Matroska
Format version : Version 4 / Version 2
File size : 1.23 GiB
Duration : 1 h 1 min
Overall bit rate : 2 867 kb/s
Encoded date : UTC 2020-05-30 07:19:20
Writing application : mkvmerge v43.0.0 ('The Quartermaster') 64-bit
Writing library : libebml v1.3.10 + libmatroska v1.5.2

Video
ID : 1
Format : AVC
Format/Info : Advanced Video Codec
Format profile : High@L4
Format settings, CABAC : Yes
Format settings, ReFrames : 3 frames
Codec ID : V_MPEG4/ISO/AVC
Duration : 1 h 1 min
Bit rate : 2 737 kb/s
Width : 1 440 pixels
Height : 1 080 pixels
Display aspect ratio : 4:3
Frame rate mode : Constant
Frame rate : 25.000 FPS
Color space : YUV
Chroma subsampling : 4:2:0
Bit depth : 8 bits
Scan type : Progressive
Bits/(Pixel*Frame) : 0.070
Stream size : 1.18 GiB (95%)
Default : Yes
Forced : No
Color range : Limited
Color primaries : BT.709
Transfer characteristics : BT.709
Matrix coefficients : BT.709

Audio
ID : 2
Format : AAC
Format/Info : Advanced Audio Codec
Format profile : LC
Codec ID : A_AAC
Duration : 1 h 1 min
Bit rate : 128 kb/s
Channel(s) : 2 channels
Channel positions : Front: L R
Sampling rate : 44.1 kHz
Frame rate : 43.066 FPS (1024 spf)
Compression mode : Lossy
Stream size : 56.3 MiB (4%)
Language : zxx
Default : Yes
Forced : No

Text
ID : 3
Format : UTF-8
Codec ID : S_TEXT/UTF8
Codec ID/Info : UTF-8 Plain Text
Duration : 1 h 1 min
Bit rate : 19 b/s
Count of elements : 192
Stream size : 8.77 KiB (0%)
Language : English
Default : No
Forced : No


:flecha: eD2K link Otravene svetlo 1921.mkv [1.23 Gb] 

Subtítulos en español de Eddie Constanti:

eD2K link Otravene svetlo 1921.srt [16.1 Kb] 





:flecha: Comentario Eddie Constanti:

Si tras leer la sinopsis, uno tiene el día no demasiado bien dispuesto para disquisiciones metafísicas en la pantalla, hará bien en embarcarse en este proyecto sin más ambiciones que pasar el rato con imágenes llevadas con buen ritmo y con el objetivo primordial de gastar una hora sin complicaciones vitales. Por supuesto, la historia de un invento que convierta la noche en día ya nos predispone a ver una de esas tramas sin mucha enjundia científica pero con robos, persecuciones, unas gotas de romance y algo de intriga en su interior. Lo demás, verosimilitud, coherencia e incluso algún que otro fallo de raccord, queda en segundo término.

Dirigió la historieta el más tarde afamado director checo Karel Lamac, entonces en su etapa de galán, como lo demuestra reservándose el papel principal, acompañado por una lozana Anny Ondra de dieciocho años, en ese tiempo casada con el propio Lamac. Este dato, el de la aparición de Ondra, pondrá muy felices a más de uno que nosotros conocemos. La "chica de Londres" hitchcockiana tiene admiradores a montones (y a éste que os escribe no le causa ningún rubor admitir que es uno de ellos).

Con una copia de buena calidad y con la perspectiva de sesenta minutos que os pasarán en un suspiro, os dejamos esta muestra del buen cine checo en su etapa silente.





:hi:

Vistas: 28  •  Comentarios: 2  •  Escribir comentario [ Volver ]

  • ¿Quién está conectado?
  • En total hay 13 usuarios conectados :: 2 registrados, 0 ocultos y 11 invitados (basados en usuarios activos en los últimos 5 minutos)
    La mayor cantidad de usuarios identificados fue 132 el 06 May 2020, 04:00

    Usuarios registrados: monge, yogiyamada





  •  Ci-Cl Archivo
  • Imagen

    Archivo Cine-Clásico
    Acceso público

  •  Cumpleaños

  •  Buscar
  • Búsqueda avanzada


  •  Últimos miembros

  •  Estilo del foro


  •  Estadísticas
  • Totales
    Mensajes totales 228256
    Temas totales 17127
    Anuncios totales: 76
    Notas totales: 36
    Adjuntos totales: 0

    Temas por día: 6
    Mensajes por día: 81
    Usuarios por día: 0
    Temas por usuario: 15
    Mensajes por usuario: 203
    Mensajes por tema: 13

    Usuarios totales 1127
    Nuestro usuario más reciente es François the Postman

  • Nombre de Usuario:


    Contraseña:


    Recordarme


  •  Cinefórum-Clásico recomienda

  •  Cinefórum-Clásico recomienda

  •  Cinefórum-Clásico recomienda
  • Imagen

    Imagen

    Imagen

    Imagen

    Imagen

    Revistas de Cine por Franxesco
    (clic en cada imagen)

  •  Enlace con nosotros
  • Por favor, siéntase libre de enlazar a Cinefórum-Clásico. Utilice el siguiente código HTML: