Imagen
chuschao's
Cinefórum-Clásico es un foro de cine que utiliza las redes KAD (eMule)

Bienvenidos

Boss Nigger (Jack Arnold, 1974) BDRip720p, VOSE


Boss Nigger
Boss
(Jack Arnold, 1974)

Imagen

Imagen


Año de producción: 1974
País: USA
Dirección: Jack Arnold
Intérpretes:Fred Williamson, D'Urville Martin, William Smith, R.G. Armstrong, Don 'Red' Barry, Barbara Leigh, Carmen Hayward.
Guión: Fred Williamson.
Música: Leon Moore
Fotografía: Robert Caramico
Duración: 87 min.
Género: Comedia, Western.


Sinopsis:

Dos cazarrecompensas negros llegan a un pequeño pueblo del Oeste persiguiendo a un forajido. Descubren que el pueblo no tiene sheriff y pronto asumen esa función, en contra de la mayoría blanca del lugar. Mientras esperan la oportunidad de atrapar al forajido, arman escándalo, persiguen mujeres y exprimen dinero a los habitantes. (FILMAFFINITY)

Comentario

Hace unos 8-9 años empecé este proyecto de subtitulación, pero los ripeos que había entonces de esta película eran de dudosa calidad. Decidí acabarlo cuando encontré hace poco en un tracker público un ripeo decentillo de un BluRay al que añadírselo. Creo, aunque no estoy seguro, que la peli es inédita en España.




Datos Técnicos

CODE: Seleccionar todo

General
Unique ID                                : 193893067528590552172722772930720896698 (0x91DE724C445517BEA39DCC0B7B1316BA)
Complete name                            : Boss Nigger.1975.BDRip 720p.VOSE.mkv
Format                                   : Matroska
Format version                           : Version 4 / Version 2
File size                                : 1.76 GiB
Duration                                 : 1 h 32 min
Overall bit rate                         : 2 712 kb/s
Movie name                               : Rip by msltel
Encoded date                             : UTC 2019-10-09 13:25:03
Writing application                      : mkvmerge v38.0.0 ('The Silent Type') 64-bit
Writing library                          : libebml v1.3.9 + libmatroska v1.5.2

Video
ID                                       : 1
Format                                   : AVC
Format/Info                              : Advanced Video Codec
Format profile                           : Main@L4
Format settings                          : CABAC / 4 Ref Frames
Format settings, CABAC                   : Yes
Format settings, RefFrames               : 4 frames
Codec ID                                 : V_MPEG4/ISO/AVC
Duration                                 : 1 h 32 min
Bit rate                                 : 2 550 kb/s
Width                                    : 1 280 pixels
Height                                   : 504 pixels
Display aspect ratio                     : 2.540
Frame rate mode                          : Constant
Frame rate                               : 23.976 (24000/1001) FPS
Color space                              : YUV
Chroma subsampling                       : 4:2:0
Bit depth                                : 8 bits
Scan type                                : Progressive
Bits/(Pixel*Frame)                       : 0.165
Stream size                              : 1.65 GiB (94%)
Writing library                          : x264 core 155 r2901 7d0ff22
Encoding settings                        : cabac=1 / ref=1 / deblock=1:0:0 / analyse=0x1:0x111 / me=hex / subme=2 / psy=1 / psy_rd=1.00:0.00 / mixed_ref=0 / me_range=16 / chroma_me=1 / trellis=0 / 8x8dct=0 / cqm=0 / deadzone=21,11 / fast_pskip=1 / chroma_qp_offset=0 / threads=12 / lookahead_threads=3 / sliced_threads=0 / nr=0 / decimate=1 / interlaced=0 / bluray_compat=0 / constrained_intra=0 / bframes=3 / b_pyramid=2 / b_adapt=1 / b_bias=0 / direct=1 / weightb=1 / open_gop=0 / weightp=1 / keyint=240 / keyint_min=24 / scenecut=40 / intra_refresh=0 / rc_lookahead=10 / rc=2pass / mbtree=1 / bitrate=2550 / ratetol=1.0 / qcomp=0.60 / qpmin=0 / qpmax=69 / qpstep=4 / cplxblur=20.0 / qblur=0.5 / vbv_maxrate=20000 / vbv_bufsize=25000 / nal_hrd=none / filler=0 / ip_ratio=1.40 / aq=1:1.00
Default                                  : Yes
Forced                                   : No
Color range                              : Limited
Color primaries                          : BT.709
Transfer characteristics                 : BT.709
Matrix coefficients                      : BT.709

Audio
ID                                       : 2
Format                                   : AAC
Format/Info                              : Advanced Audio Codec
Format profile                           : LC
Codec ID                                 : A_AAC-2
Duration                                 : 1 h 32 min
Bit rate                                 : 160 kb/s
Channel(s)                               : 2 channels
Channel positions                        : Front: L R
Sampling rate                            : 48.0 kHz
Frame rate                               : 46.875 FPS (1024 SPF)
Compression mode                         : Lossy
Stream size                              : 106 MiB (6%)
Title                                    : Stereo
Language                                 : English
Default                                  : Yes
Forced                                   : No

Text
ID                                       : 3
Format                                   : UTF-8
Codec ID                                 : S_TEXT/UTF8
Codec ID/Info                            : UTF-8 Plain Text
Duration                                 : 1 h 32 min
Bit rate                                 : 41 b/s
Count of elements                        : 780
Stream size                              : 28.3 KiB (0%)
Language                                 : Spanish
Default                                  : Yes
Forced                                   : No



Capturas

Imagen

Imagen

Imagen

Imagen

Imagen

Imagen

Imagen

Imagen

Imagen

Imagen

Imagen

Imagen

Imagen

Imagen

Imagen

Imagen

Imagen






Enlaces

Película.

eD2K link Boss Nigger.1975.BDRip 720p.VOSE.mkv [1.76 Gb] 


Que la disfrutéis con salud. :colega: :drinks:

Vistas: 256  •  Comentarios: 10  •  Escribir comentario [ Volver ]

  • ¿Quién está conectado?
  • En total hay 14 usuarios conectados :: 4 registrados, 1 oculto y 9 invitados (basados en usuarios activos en los últimos 5 minutos)
    La mayor cantidad de usuarios identificados fue 709 el 30 Sep 2019, 22:35

    Usuarios registrados: Caolin, Colibrí, deh57h, Gorchakov





  •  Ci-Cl Archivo
  • Imagen

    Archivo Cine-Clásico
    Acceso público

  •  Cumpleaños

  •  Buscar
  • Búsqueda avanzada


  •  Últimos miembros

  •  Estilo del foro


  •  Estadísticas
  • Totales
    Mensajes totales 215533
    Temas totales 16038
    Anuncios totales: 73
    Notas totales: 37
    Adjuntos totales: 0

    Temas por día: 6
    Mensajes por día: 83
    Usuarios por día: 0
    Temas por usuario: 14
    Mensajes por usuario: 192
    Mensajes por tema: 13

    Usuarios totales 1125
    Nuestro usuario más reciente es Colibrí

  •  Enlace con nosotros
  • Por favor, siéntase libre de enlazar a Cinefórum-Clásico. Utilice el siguiente código HTML:



  • Nombre de Usuario:


    Contraseña:


    Recordarme


  •  Cinefórum-Clásico recomienda

  •  Cinefórum-Clásico recomienda

  •  Cinefórum-Clásico recomienda
  • Imagen

    Imagen

    Imagen

    Imagen

    Imagen

    Revistas de Cine por Franxesco
    (clic en cada imagen)