Imagen
Bunker

Cinefórum-Clásico es un foro de cine que utiliza las redes KAD (eMule)

Bienvenidos

AzulOscuroCasiNegro (Daniel Sánchez Arévalo, 2006) WEB-DL 1080p VOSE I


AzulOscuroCasiNegro

Imagen
IMDb

Director: Daniel Sánchez Arévalo
Género: Drama, Romance, Discapacidad, Homosexualidad
País: España
Año: 2006
Idioma: Español...

Vistas: 51  •  Comentarios: 2  •  Escribir comentario

Kentucky Pride (John Ford, 1925) screenerRip


Kentucky Pride
Sangre de pista

Imagen

IMDB
Filmaffinity


Año
1925
Duración
70 min.
País
Estados Unidos Estados Unidos
Dirección
John Ford
Guion
Elizabet
...

Vistas: 106  •  Comentarios: 6  •  Escribir comentario

Golden Earrings (Mitchell Leisen, 1947) DVDRip Dual SE


Golden Earrings

1947

Mitchell Leisen


Imagen

Título original: Golden Earrings

Título en España: En las rayas de la mano

Año: 1947

Duración: 95 min.

...

Vistas: 199  •  Comentarios: 4  •  Escribir comentario

Cléo de 5 à 7 (Agnès Varda, 1962) BDRip 720p VOSE


UNA JOYA DE LA NOUVELLE VAGUE

Imagen

Dirigida por
Agnès Varda

Guión de
Agnès Varda

Producida por
Georges de Beauregard y Carlo Ponti

Fotografía de
...

Vistas: 163  •  Comentarios: 9  •  Escribir comentario

The Dream Lady (Elsie Jane Wilson, 1918) BDRip 1080p VOSE


Imagen

CICLO: PIONERAS DEL CINE (8)
THE DREAM LADY
(1918)


Imagen

IMDb


Producción
Universal Film Manufacturing Company

Directora
Elsie Jane Wilson

Guion
F
...

Vistas: 117  •  Comentarios: 5  •  Escribir comentario

Das Rätsel der roten Orchidee (Helmut Ashley, 1962 ) DVDRip Dual SE


DAS RÄTSEL DER ROTEN ORCHIDEE
(Gangsters en Londres)
(1962)


Imagen

IMDb


Producción
Rialto Film Preben-Philipsen
Constantin Film

Director
Helmut Ashley
...

Vistas: 160  •  Comentarios: 5  •  Escribir comentario

Fanfare (Bert Haanstra, 1958) DVDRip VOSE


Faeton, en DXC

Fanfare (Bert Haanstra, 1958)

Imagen

IMDB

País: Países Bajos (Holanda)
Dirección: Bert Haanstra
Guion: Jan Blokker, Bert Haanstra
Música
...

Vistas: 175  •  Comentarios: 4  •  Escribir comentario

Wilson (Henry King, 1944) DVDRip Dual SE


WILSON

Imagen
IMDB

Pais: Estados Unidos
Año: 1944
Género: Drama | Biográfico. Política
Duración: 154 min.
Dirección: Henry King
Guion: Lamar Trotti
...

Vistas: 226  •  Comentarios: 12  •  Escribir comentario

Cutter's Way (Ivan Passer, 1981) BDRip 1080p VOSE + Aud Esp


Imagen
Cutter's Way / El camino de Cutter (1981)
109 min EE.UU. Crime, Drama, Mystery, Thriller
Director:
Ivan Passer
Guión:
Newton Thornburg, Jeffrey Alan Fiskin
Productor:
Larry Franco
Música:
Fotografía:
Reparto: Jeff Bridges, John Heard, Lisa Eichhorn, Ann Dusenberry

Sinopsis:

Una intriga criminal y tres inadaptados se mezclan en este thriller con aires de cine negro.
Según algunos críticos norteamericanos y británicos, uno de los films claves de la década de los ochenta.


Datos técnicos:

CODE: Seleccionar todo

General
Unique ID : 289769379761003198608404695564475268638 (0xD9FF8D7393D986A12FD2F5EDCAF97E1E)
Complete name : C:\emule\Incoming\Cutters.Way.1981.1080p.BluRay.x264.DTS-FGT VOSE.mkv
Format : Matroska
Format version : Version 4 / Version 2
File size : 9.25 GiB
Duration : 1h 49mn
Overall bit rate : 12.1 Mbps
Movie name : Cutters.Way.1981.1080p.BluRay.x264.DTS-FGT
Encoded date : UTC 2019-03-16 23:25:02
Writing application : mkvmerge v30.1.0 ('Forever And More') 32-bit
Writing library : libebml v1.3.6 + libmatroska v1.4.9
Cover : Yes
Attachments : cover_land.jpg / small_cover.jpg / small_cover_land.jpg / cover.jpg

Video
ID : 1
Format : AVC
Format/Info : Advanced Video Codec
Format profile : High@L4.1
Format settings, CABAC : Yes
Format settings, ReFrames : 4 frames
Codec ID : V_MPEG4/ISO/AVC
Duration : 1h 49mn
Bit rate : 11.5 Mbps
Width : 1 916 pixels
Height : 1 040 pixels
Display aspect ratio : 1.85:1
Frame rate mode : Constant
Frame rate : 23.976 (24000/1001) fps
Color space : YUV
Chroma subsampling : 4:2:0
Bit depth : 8 bits
Scan type : Progressive
Bits/(Pixel*Frame) : 0.241
Stream size : 8.65 GiB (94%)
Writing library : x264 core 148 r2694 3b70645
Encoding settings : cabac=1 / ref=4 / deblock=1:-2:-2 / analyse=0x3:0x113 / me=umh / subme=7 / psy=1 / psy_rd=1.00:0.15 / mixed_ref=1 / me_range=16 / chroma_me=1 / trellis=1 / 8x8dct=1 / cqm=0 / deadzone=21,11 / fast_pskip=1 / chroma_qp_offset=-3 / threads=12 / lookahead_threads=3 / sliced_threads=0 / nr=0 / decimate=1 / interlaced=0 / bluray_compat=0 / constrained_intra=0 / bframes=3 / b_pyramid=2 / b_adapt=2 / b_bias=0 / direct=3 / weightb=1 / open_gop=0 / weightp=2 / keyint=250 / keyint_min=25 / scenecut=40 / intra_refresh=0 / rc_lookahead=50 / rc=abr / mbtree=1 / bitrate=11500 / ratetol=1.0 / qcomp=0.60 / qpmin=0 / qpmax=69 / qpstep=4 / vbv_maxrate=31250 / vbv_bufsize=31250 / nal_hrd=none / filler=0 / ip_ratio=1.40 / aq=1:1.00
Language : English
Default : Yes
Forced : No

Audio
ID : 2
Format : DTS
Format/Info : Digital Theater Systems
Mode : 16
Format settings, Endianness : Big
Codec ID : A_DTS
Duration : 1h 49mn
Bit rate mode : Constant
Bit rate : 768 Kbps
Channel(s) : 1 channel
Channel positions : Front: C
Sampling rate : 48.0 KHz
Frame rate : 93.750 fps (512 spf)
Bit depth : 24 bits
Compression mode : Lossy
Stream size : 600 MiB (6%)
Language : English
Default : Yes
Forced : No

Text #1
ID : 3
Format : UTF-8
Codec ID : S_TEXT/UTF8
Codec ID/Info : UTF-8 Plain Text
Duration : 1h 43mn
Bit rate : 46 bps
Count of elements : 990
Stream size : 35.0 KiB (0%)
Title : Castellano DVD
Language : Spanish
Default : No
Forced : No

Text #2
ID : 4
Format : UTF-8
Codec ID : S_TEXT/UTF8
Codec ID/Info : UTF-8 Plain Text
Duration : 1h 43mn
Bit rate : 53 bps
Count of elements : 1234
Stream size : 40.5 KiB (0%)
Language : English
Default : Yes
Forced : No

Text #3
ID : 5
Format : UTF-8
Codec ID : S_TEXT/UTF8
Codec ID/Info : UTF-8 Plain Text
Duration : 1h 43mn
Bit rate : 53 bps
Count of elements : 1258
Stream size : 40.5 KiB (0%)
Title : English srt
Language : English
Default : No
Forced : No

Text #4
ID : 6
Format : PGS
Muxing mode : zlib
Codec ID : S_HDMV/PGS
Codec ID/Info : Picture based subtitle format used on BDs/HD-DVDs
Duration : 1h 43mn
Bit rate : 36.5 Kbps
Count of elements : 2694
Stream size : 27.0 MiB (0%)
Title : English sup
Language : English
Default : No
Forced : No

Menu
00:00:00.000 : en:Chapter 01
00:04:34.983 : en:Chapter 02
00:07:40.751 : en:Chapter 03
00:14:52.266 : en:Chapter 04
00:19:18.365 : en:Chapter 05
00:23:50.178 : en:Chapter 06
00:26:40.974 : en:Chapter 07
00:31:55.955 : en:Chapter 08
00:38:14.917 : en:Chapter 09
00:40:08.823 : en:Chapter 10
00:48:17.477 : en:Chapter 11
00:52:46.288 : en:Chapter 12
00:57:56.598 : en:Chapter 13
01:00:53.149 : en:Chapter 14
01:04:44.547 : en:Chapter 15
01:08:17.009 : en:Chapter 16
01:15:19.515 : en:Chapter 17
01:20:13.475 : en:Chapter 18
01:23:15.448 : en:Chapter 19
01:28:18.209 : en:Chapter 20
01:33:09.667 : en:Chapter 21
01:37:36.934 : en:Chapter 22
01:42:03.534 : en:Chapter 23
01:46:57.411 : en:Chapter 24

Capturas:

Imagen Imagen Imagen Imagen Imagen Imagen Imagen Imagen Imagen
eD2K link Película
...

Vistas: 252  •  Comentarios: 11  •  Escribir comentario

Uma pedra no bolso (Joaquim Pinto, 1988) WEBRip VO


Imagen
Uma Pedra no Bolso / Uma Pedra no Bolso (1988)
1h 31min Portugal Drama
Director:
Joaquim Pinto
Guión:
Eduarda Chiotte, Joaquim Pinto
Productor:
João Pedro Bénard
Música:
Joaquim Pinto
Fotografía:
Joaquim Pinto
Reparto: Inês de Medeiros, Isabel de Castro, Bruno Leite, Manuel Lobão

Sinopsis:

Miguel, un chico de doce años, (Bruno Leite) es enviado a pasar el verano con su tía a una localidad turística de la costa, donde se hace amigo de Joao
(Manuel Labao), un chico mayor que disfruta con sus conquistas sexuales de mujeres veraneantes. Miguel también se hace amigo de la sirvienta Luisa (Ines Medeiros). Más tarde, Miguel debe defender a Joao cuando éste es acusado de robar a su tía. Película debut del Joaquim Pinto, que empleó 4 personas y 2 1/2 semanas para producirla.


Datos técnicos:

CODE: Seleccionar todo

General
Unique ID : 194574594472248466896548930131276832868 (0x9261B42BA77B707EB827A2991E83A064)
Complete name : Uma.Pedra.no.Bolso.v2.1988.WEBRip.x264-MaZ.mkv
Format : Matroska
Format version : Version 4 / Version 2
File size : 1.44 GiB
Duration : 1h 31mn
Overall bit rate : 2 261 Kbps
Encoded date : UTC 2016-06-28 01:27:39
Writing application : mkvmerge v9.0.0 ('Power to progress') 64bit
Writing library : libebml v1.3.3 + libmatroska v1.4.4

Video
ID : 1
Format : AVC
Format/Info : Advanced Video Codec
Format profile : High@L4.1
Format settings, CABAC : Yes
Format settings, ReFrames : 8 frames
Codec ID : V_MPEG4/ISO/AVC
Duration : 1h 31mn
Bit rate : 2 067 Kbps
Width : 788 pixels
Height : 576 pixels
Display aspect ratio : 4:3
Frame rate mode : Constant
Frame rate : 24.000 fps
Color space : YUV
Chroma subsampling : 4:2:0
Bit depth : 8 bits
Scan type : Progressive
Bits/(Pixel*Frame) : 0.190
Stream size : 1.32 GiB (91%)
Writing library : x264 core 148 r2665 a01e339
Encoding settings : cabac=1 / ref=8 / deblock=1:-3:-3 / analyse=0x3:0x133 / me=umh / subme=9 / psy=1 / psy_rd=1.00:0.15 / mixed_ref=1 / me_range=28 / chroma_me=1 / trellis=2 / 8x8dct=1 / cqm=0 / deadzone=21,11 / fast_pskip=0 / chroma_qp_offset=-3 / threads=12 / lookahead_threads=3 / sliced_threads=0 / nr=0 / decimate=0 / interlaced=0 / bluray_compat=0 / constrained_intra=0 / bframes=12 / b_pyramid=2 / b_adapt=2 / b_bias=0 / direct=3 / weightb=1 / open_gop=0 / weightp=2 / keyint=240 / keyint_min=24 / scenecut=40 / intra_refresh=0 / rc_lookahead=60 / rc=2pass / mbtree=1 / bitrate=2067 / ratetol=3.0 / qcomp=0.60 / qpmin=0 / qpmax=69 / qpstep=4 / cplxblur=20.0 / qblur=0.5 / vbv_maxrate=14000 / vbv_bufsize=14000 / nal_hrd=none / filler=0 / ip_ratio=1.40 / aq=1:1.00
Default : Yes
Forced : No

Audio
ID : 2
Format : AC-3
Format/Info : Audio Coding 3
Mode extension : CM (complete main)
Format settings, Endianness : Big
Codec ID : A_AC3
Duration : 1h 31mn
Bit rate mode : Constant
Bit rate : 192 Kbps
Channel(s) : 2 channels
Channel positions : Front: L R
Sampling rate : 48.0 KHz
Frame rate : 31.250 fps (1536 spf)
Compression mode : Lossy
Stream size : 125 MiB (8%)
Language : Portuguese
Default : Yes
Forced : No

Text
ID : 3
Format : UTF-8
Codec ID : S_TEXT/UTF8
Codec ID/Info : UTF-8 Plain Text
Duration : 1h 25mn
Bit rate : 27 bps
Count of elements : 524
Stream size : 17.2 KiB (0%)
Language : English
Default : Yes
Forced : No

Capturas:

Imagen Imagen Imagen Imagen Imagen Imagen
eD2K link Uma.Pedra.no.Bolso.v2.1988.WEBRip.x264-MaZ.mkv [1.44 Gb] 
...

Vistas: 105  •  Comentarios: 2  •  Escribir comentario

Nocturne (Edwin L. Marin, 1946) DVDRip Dual SE


Juan_0316 & Mercedes

Nocturne

Imagen
IMDB

Pais: Estados Unidos
Año: 1946
Género: Cine negro. Intriga. Drama
Duración: 87 min.
Dirección: Edwin L.
...

Vistas: 224  •  Comentarios: 11  •  Escribir comentario

Un Giorno da Leoni (Nanni Loy, 1961) SATRip VO+SE


Un Giorno da Leoni

Imagen

TÍTULO ORIGINAL: Un Giorno da Leoni
TÍTULO EN ESPAÑOL: Leones por un día
AÑO: 1961
DURAC
...

Vistas: 233  •  Comentarios: 10  •  Escribir comentario


  • ¿Quién está conectado?
  • En total hay 10 usuarios conectados :: 1 registrado, 0 ocultos y 9 invitados (basados en usuarios activos en los últimos 5 minutos)
    La mayor cantidad de usuarios identificados fue 76 el 25 Ago 2018, 06:19

    Usuarios registrados: ostrata





  •  Ci-Cl Archivo
  • Imagen

    Archivo Cine-Clásico
    Acceso público

  •  Cumpleaños

  •  Buscar
  • Búsqueda avanzada


  •  Últimos miembros

  •  Estilo del foro


  •  Estadísticas
  • Totales
    Mensajes totales 206380
    Temas totales 15406
    Anuncios totales: 73
    Notas totales: 37
    Adjuntos totales: 0

    Temas por día: 6
    Mensajes por día: 87
    Usuarios por día: 0
    Temas por usuario: 14
    Mensajes por usuario: 184
    Mensajes por tema: 13

    Usuarios totales 1122
    Nuestro usuario más reciente es mendo

  •  Enlace con nosotros
  • Por favor, siéntase libre de enlazar a Cinefórum-Clásico. Utilice el siguiente código HTML:



  • Nombre de Usuario:


    Contraseña:


    Recordarme


  •  Cinefórum-Clásico recomienda

  •  Cinefórum-Clásico recomienda

  •  Cinefórum-Clásico recomienda
  • Imagen

    Imagen

    Imagen

    Imagen

    Imagen

    Revistas de Cine por Franxesco
    (clic en cada imagen)