Le magnifique (P. de Broca, 1973) DVDRip VO + AuEs

Elinks de largometrajes de cine moderno (Modern feature films) posteriores a 1.960 (>= 1.960) anteriores a 1.979 (<= 1.979) inclusive, cuyo metraje exceda los 45 minutos (> 45 min.)

Re: Le magnifique (P.DeBrocca,1973) DVDRip dual

Notapor melegar » Mié Feb 11, 2009 9:20 pm

.

Paulfosco, he montado el audio en castellano en la primera pista y he puesto el francés en la segunda y ha quedado un dual que ni pintado. Muchísimas gracias por la sincronización.


MEDITO:

Ya tengo localizada una versión de 624x384. Estoy a la espera de ver si cae una aún mejor.

No sé si a alguien más le interesará.


MEDITO MUCHO MÁS:

He encontrado otra de 640x384. Voy a intentar hacerme con ella. No va a ser fácil. Hay osos polares.

.
Avatar de Usuario
melegar
Gran Productor
Gran Productor
 
Mensajes: 687
Registrado: Vie Nov 14, 2008 1:09 pm

Re: Le magnifique (P.DeBrocca,1973) DVDRip dual

Notapor manolito71 » Sab May 09, 2009 4:01 pm

me interesa, gracias por intentarlo.
Saludo. :hola:
manolito71
Ed Wood
Ed Wood
 
Mensajes: 1
Registrado: Dom Abr 26, 2009 10:36 pm

Re: Le magnifique (P.DeBrocca,1973) DVDRip dual

Notapor punkandroll » Mar Nov 17, 2009 8:10 pm

me uno a video y audio, espero que esten bien de fuentes, consegui la cinta vhs pero prefiero verla en mas calidad, saludos
Avatar de Usuario
punkandroll
Guionista colosal
Guionista colosal
 
Mensajes: 505
Registrado: Vie Nov 09, 2007 10:12 am

Re: Le magnifique (P. de Broca, 1973) DVDRip VO + AuEs

Notapor professor keller » Mié Nov 18, 2009 11:51 pm

Me permito recomendarles este ripeo, que en mi opinión se ve mejor:

eD2K link OK Le Magnifique-1973-Jean-Paul Belmondo-Fr.avi [756.56 Mb] 

Mañana traigo datos técnicos y capturas.

Los subs que menciona DaVinci funcionan adelantándolos un poco, pero si me dan unos días traigo una versión sincronizada y corregida (éstos no tienen aperturas en las interrogaciones, etc.)
Avatar de Usuario
professor keller
Director consagrado
Director consagrado
 
Mensajes: 3399
Registrado: Lun Sep 25, 2006 6:53 pm
Ubicación: Buenos Aires, Argentina

Re: Le magnifique (P. de Broca, 1973) DVDRip VO + AuEs

Notapor professor keller » Mié Nov 25, 2009 9:57 pm

professor keller escribió:Mañana traigo datos técnicos y capturas.


Imagen

Código: Seleccionar todo
Video
ID                               : 0
Format                           : MPEG-4 Visual
Format settings, BVOP            : Yes
Format settings, QPel            : No
Format settings, GMC             : No warppoints
Format settings, Matrix          : Default (H.263)
Muxing mode                      : Packed bitstream
Codec ID                         : DX50
Codec ID/Hint                    : DivX 5
Duration                         : 1h 30mn
Bit rate                         : 1 051 Kbps
Width                            : 592 pixels
Height                           : 400 pixels
Display aspect ratio             : 1.480
Frame rate                       : 25.000 fps
Resolution                       : 24 bits
Colorimetry                      : 4:2:0
Scan type                        : Progressive
Bits/(Pixel*Frame)               : 0.178
Stream size                      : 678 MiB (90%)
Writing library                  : DivX 6.1.1 (UTC 2006-02-01)

Audio
ID                               : 1
Format                           : MPEG Audio
Format version                   : Version 1
Format profile                   : Layer 3
Codec ID                         : 55
Codec ID/Hint                    : MP3
Duration                         : 1h 30mn
Bit rate mode                    : Constant
Bit rate                         : 112 Kbps
Channel(s)                       : 2 channels
Sampling rate                    : 44.1 KHz
Resolution                       : 16 bits
Stream size                      : 72.2 MiB (10%)
Alignment                        : Split accross interleaves
Interleave, duration             : 39 ms (0.99 video frame)
Interleave, preload duration     : 500 ms


Por otro lado contarles que abandoné la corrección de los subs, porque no sólo tenían errores, sino que están traducidos en una rara mezcla de argentino-español. Había que re-traducirlos o dejarlos así, y teniendo muchos otros subs pendientes, prefiero dejarlos así.
Avatar de Usuario
professor keller
Director consagrado
Director consagrado
 
Mensajes: 3399
Registrado: Lun Sep 25, 2006 6:53 pm
Ubicación: Buenos Aires, Argentina

Re: Le magnifique (P. de Broca, 1973) DVDRip VO + AuEs

Notapor rt13 » Dom Abr 04, 2010 8:25 pm

muchas gracias professor keller me llevo la version original :hola:
ah por cierto Paulfosco el enlace:
eD2K link Jean-Paul Belmondo - Le Magnifique.avi [698.55 Mb] 
sta malogrado :hola: :hola: :hola:
PERO EH ENCONTRADO EN LA MULA ESTE ENLACE:
eD2K link 57) LE MAGNIFIQUE (Jean-Paul Belmondo & Jacqueline Bisset) 1973 DvDRiP fR.avi [698.55 Mb] 
QUE PUEDE CORRESPONDER AL AUDIO POR que pesan lo mismo PERO ESTA por comprobar
saludos y espero se solucione :hola:
Avatar de Usuario
rt13
Director de culto
Director de culto
 
Mensajes: 921
Registrado: Dom Ene 11, 2009 3:31 am

Re: Le magnifique (P. de Broca, 1973) DVDRip VO + AuEs

Notapor Chaltonjeston » Jue Abr 08, 2010 7:51 pm

Gracias por la película.

Me llevo el audio en español y la version encontrada por RT13, a ver si vale el audio en castellano.

Saludos
Avatar de Usuario
Chaltonjeston
Cinéfil@
Cinéfil@
 
Mensajes: 85
Registrado: Vie May 15, 2009 9:17 pm

Anterior

Volver a Largos Modernos

¿Quién está conectado?

Usuarios navegando por este Foro: No hay usuarios registrados visitando el Foro y 1 invitado