No Highway (H. Koster, 1951) VHSRip VOSE/TVRip VO

Elinks de largometrajes de cine clásico (Classic feature films) anteriores a 1.959 inclusive (<= 1.959) cuyo metraje exceda los 45 minutos (> 45 min.)

No Highway (H. Koster, 1951) VHSRip VOSE/TVRip VO

Notapor nest7 » Dom Jun 24, 2007 6:59 pm

Índice de Ripeos: -
VHSRip Versión Original con subtítulos en español, publicado por nest7.
TVRip Versión Original, publicado por roisiano.

*Nota: Tenga en cuenta la calidad de cada ripeo para hacer la mejor elección. Haga click aquí para más información.


No Highway in the sky, 1951
Momentos de peligro

Imagen

eD2K link No Highway in the sky.1951.VOSE.nest7.avi [794.89 Mb] 

http://www.imdb.com/title/tt0043859/

GB, B/N, 105 Min.
Director: Henry Koster
Guión: Nevil Shute, R.c. Sherriff
Fotografía: Georges Périnal
Música: Malcolm Arnold
Intérpretes: James Stewart, Marlene Dietrich, Glynis Johns, Jack Hawkins, Janette Scott, Elizabeth Allan, Ronald Squire, Jill Clifford, Felix Aylmer
Un ingeniero aeronáutico descubre que el Reindeer, el nuevo avión de pasajeros de la compañía para la que trabaja, tiene problemas en su diseño que pueden hacer que su estructura falle tras un tiempo en el aire.

ImagenImagen
ImagenImagen

Código: Seleccionar todo
Nombre de Archivo : No Highway in  the sky.1951.VOSE.nest7.avi
Tamaño de Archivo : 795 Mb.
[Película]
Válido : Sí [AVI]
Duración : 01:33:50
Película completa : Sí
[Vídeo]
Resolución : 620x460
Códec : DivX 5.x codec
FPS : 25,00
BitRate : 1120 Kbps
[Audio]
Códec : MPEG-1 Layer 3 (MP3)
Nº de canales : 2
Ratio de Muestra : 44100 Hz
BitRate : 64 Kbps
nest7
Crítico de prestigio
Crítico de prestigio
 
Mensajes: 205
Registrado: Sab Ago 20, 2005 7:31 am

Notapor aliosha » Dom Jun 24, 2007 7:11 pm

pinchada, gracias nest7

saludos
Avatar de Usuario
aliosha
Director consagrado
Director consagrado
 
Mensajes: 1175
Registrado: Mar Dic 20, 2005 2:20 pm

Notapor roisiano » Dom Jun 24, 2007 9:58 pm

aliosha escribió:pinchada, gracias nest7

saludos

Lo mismo digo.
:flecha: Selección musical para un viaje

------------------------------

Muchas de las capturas de los ripeos que he publicado se han perdido, ya que Imageshack las ha borrado. En principio, no voy a reponerlas.
Avatar de Usuario
roisiano
Director consagrado
Director consagrado
 
Mensajes: 1752
Registrado: Dom May 07, 2006 9:46 am
Ubicación: Al final del río

Notapor James Mason » Lun Jun 25, 2007 1:25 am

Nunca la he visto y tengo cierta curiosidad. Pinchada queda
Gracias Nest. Saludos
Avatar de Usuario
James Mason
Director consagrado
Director consagrado
 
Mensajes: 3591
Registrado: Sab Dic 16, 2006 1:28 am

Notapor Paul Kersey » Lun Jun 25, 2007 1:42 am

Gracias nest7, pincho la tuya y esta otra que también esta en el emule eD2K link No.Highway.In.The.Sky.(1951).James.Stewart.avi [1005.96 Mb] 
Para ver como está de calidad.

Saludos
Avatar de Usuario
Paul Kersey
Gran camarógraf@
Gran camarógraf@
 
Mensajes: 330
Registrado: Vie Ene 19, 2007 9:08 pm


Re: No Highway in the sky (Henry Koster,1951).VHSRip.VOSE

Notapor lluis600 » Mié Dic 31, 2008 8:42 pm

Me apunto a la descarga. Gracias :good:
Avatar de Usuario
lluis600
Director consagrado
Director consagrado
 
Mensajes: 1488
Registrado: Jue Jun 21, 2007 7:39 am

No Highway (Henry Koster, 1951) TVRip VO (MKV)

Notapor roisiano » Jue Jul 07, 2011 11:48 am

Momentos de peligro (No Highway) (Henry Koster, 1951)

Imagen
Imagen
Imagen
Imagen
Filmaffinity | IMDb

GUIÓN: R.C. Sherriff, Oscar Millard, Alec Coppel (Novela: Nevil Shute)
MÚSICA: Malcolm Arnold
FOTOGRAFÍA: Georges Périnal (B&W)
REPARTO: James Stewart, Marlene Dietrich, Glynis Johns, Jack Hawkins, Janette Scott, Elizabeth Allan, Ronald Squire
PRODUCTORA: Twentieth Century-Fox Productions
GÉNERO: Drama | Thriller
SINOPSIS: Theodore, un ingeniero aeronáutico, debe repasar las especificaciones de un avión de su compañía: Tras su análisis, cree detectar que existe un riesgo de fatiga de materiales lo suficientemente importante como para advertir a la tripulación de un aparato que se encuentra volando. (FILMAFFINITY)


Gracias a tag por el DVD a partir de una emisión de TCM:

Ripeo anamórfico
Código: Seleccionar todo
Resolution: 702 x 476
Frame aspect ratio: 351:238 = 1.474789
Pixel aspect ratio: 476:523 = 0.910133
Display aspect ratio: 702:523 = 1.342256 (~4:3)
con esta configuración:
Código: Seleccionar todo
"C:\x264.exe" --preset veryslow --tune film --crf 16.0 --no-chroma-me --level 4.1 --output "C:\mi_ripeo.mkv" "C:\mi_script.avs" --sar 10:11


Imagen
Imagen
Imagen
Imagen
Imagen
Imagen


Código: Seleccionar todo
Format : Matroska
File size : 995 MiB
Duration : 1h 37mn
Overall bit rate : 1 420 Kbps
Encoded date : UTC 2011-07-07 09:03:36
Writing application : mkvmerge v4.0.0 ('The Stars were mine') built on Jun 6 2010 16:18:42
Writing library : libebml v1.0.0 + libmatroska v1.0.0

Video
ID : 1
Format : AVC
Format/Info : Advanced Video Codec
Format profile : High@L4.1
Format settings, CABAC : Yes
Format settings, ReFrames : 16 frames
Codec ID : V_MPEG4/ISO/AVC
Duration : 1h 37mn
Bit rate : 1 264 Kbps
Width : 702 pixels
Height : 476 pixels
Display aspect ratio : 4:3
Original display aspect ratio : 4:3
Frame rate : 23.976 fps
Color space : YUV
Chroma subsampling : 4:2:0
Bit depth : 8 bits
Scan type : Progressive
Bits/(Pixel*Frame) : 0.158
Stream size : 886 MiB (89%)
Writing library : x264 core 115 r2008 4c552d8
Encoding settings : cabac=1 / ref=16 / deblock=1:-1:-1 / analyse=0x3:0x133 / me=umh / subme=10 / psy=1 / psy_rd=1.00:0.15 / mixed_ref=1 / me_range=24 / chroma_me=0 / trellis=2 / 8x8dct=1 / cqm=0 / deadzone=21,11 / fast_pskip=1 / chroma_qp_offset=-3 / threads=6 / sliced_threads=0 / nr=0 / decimate=1 / interlaced=0 / bluray_compat=0 / constrained_intra=0 / bframes=8 / b_pyramid=2 / b_adapt=2 / b_bias=0 / direct=3 / weightb=1 / open_gop=0 / weightp=2 / keyint=250 / keyint_min=23 / scenecut=40 / intra_refresh=0 / rc_lookahead=60 / rc=crf / mbtree=1 / crf=16.0 / qcomp=0.60 / qpmin=0 / qpmax=69 / qpstep=4 / ip_ratio=1.40 / aq=1:1.00
Language : English

Audio
ID : 2
Format : MPEG Audio
Format version : Version 1
Format profile : Layer 3
Mode : Joint stereo
Mode extension : MS Stereo
Codec ID : A_MPEG/L3
Codec ID/Hint : MP3
Duration : 1h 37mn
Bit rate mode : Constant
Bit rate : 128 Kbps
Channel(s) : 2 channels
Sampling rate : 48.0 KHz
Compression mode : Lossy
Delay relative to video : 6ms
Stream size : 89.7 MiB (9%)
Language : English   

:flecha: Selección musical para un viaje

------------------------------

Muchas de las capturas de los ripeos que he publicado se han perdido, ya que Imageshack las ha borrado. En principio, no voy a reponerlas.
Avatar de Usuario
roisiano
Director consagrado
Director consagrado
 
Mensajes: 1752
Registrado: Dom May 07, 2006 9:46 am
Ubicación: Al final del río

Re: No Highway in the sky (H. Koster, 1951) VHSRip VOSE/TVRi

Notapor sargentoyork » Dom Jul 10, 2011 9:22 am

Me llevo este mkv, a la espera de la extracción de los subtítulos de la copia vhs.
Avatar de Usuario
sargentoyork
Director consagrado
Director consagrado
 
Mensajes: 1327
Registrado: Lun Ago 21, 2006 9:37 am

Re: No Highway in the sky (H. Koster, 1951) VHSRip VOSE/TVRi

Notapor bette » Dom Jul 10, 2011 11:20 am

sargentoyork escribió:Me llevo este mkv, a la espera de la extracción de los subtítulos de la copia vhs.

Yo también, muchas gracias roisiano :hola:
Avatar de Usuario
bette
Gran Productor
Gran Productor
 
Mensajes: 662
Registrado: Vie Mar 09, 2007 7:25 am

Re: No Highway in the sky (H. Koster, 1951) VHSRip VOSE/TVRi

Notapor JGUTII » Lun Jul 11, 2011 7:43 pm

Muchas gracias, roisiano. Completo y compartiendo el mkv. :hola:
Avatar de Usuario
JGUTII
Director consagrado
Director consagrado
 
Mensajes: 4755
Registrado: Mié Ago 08, 2007 9:58 pm
Ubicación: Ciudad del Betis

Re: No Highway in the sky (H. Koster, 1951) VHSRip VOSE/TVRi

Notapor Chalvis20 » Mar Jul 12, 2011 2:40 am

Muchas gracias roisiano, esperaremos los sub o el audio. :bravo:
Avatar de Usuario
Chalvis20
Gran camarógraf@
Gran camarógraf@
 
Mensajes: 325
Registrado: Mié Feb 04, 2009 2:37 am

Re: No Highway in the sky (H. Koster, 1951) VHSRip VOSE/TVRi

Notapor paz » Lun Dic 12, 2011 3:49 am

Gracias, a ver si pronto tenemos audio o subtitulos
paz
Extra de cine
Extra de cine
 
Mensajes: 107
Registrado: Jue Ago 17, 2006 7:51 pm

Re: No Highway (H. Koster, 1951) VHSRip VOSE/TVRip VO

Notapor almogavar » Vie Abr 06, 2012 12:14 pm

muchas gracias, completo, compartiendo y a la espera de unos subs..................
bonneville
Avatar de Usuario
almogavar
Aficionad@
Aficionad@
 
Mensajes: 59
Registrado: Mié Ago 13, 2008 9:04 pm
Ubicación: bcn


Volver a Largos Clásicos

¿Quién está conectado?

Usuarios navegando por este Foro: No hay usuarios registrados visitando el Foro y 2 invitados