The Rare Breed (Andrew McLaglen, 1966) Ver índice

Elinks de largometrajes de cine moderno (Modern feature films) posteriores a 1.960 (>= 1.960) anteriores a 1.979 (<= 1.979) inclusive, cuyo metraje exceda los 45 minutos (> 45 min.)

The Rare Breed (Andrew McLaglen, 1966) Ver índice

Notapor elquetuquieras » Dom Jun 10, 2007 11:18 pm

Índice de Ripeos: -

*Nota: Tenga en cuenta la calidad de cada ripeo para hacer la mejor elección. Haga click aquí para más información.



Aqui os dejo este dual español e ingles, entretenido del oeste.

Imagen

Una dama entre vaqueros
TITULO ORIGINAL The Rare Breed
AÑO 1966

DURACIÓN 108 min.


DIRECTOR Andrew V. McLaglen
GUIÓN Ric Hardman
MÚSICA John Williams
FOTOGRAFÍA William H. Clothier
REPARTO James Stewart, Maureen O´Hara, Brian Keith, Juliet Mills, Don Galloway, David Brian, Jack Elam, Ben Johnson, Harry Carey Jr.
PRODUCTORA Universal Pictures
GÉNERO Y CRÍTICA




Western. Comedia / SINOPSIS: En el Oeste de 1884, dos inglesas, madre e hija, venden un ejemplar vacuno pretendiendo que la raza del mismo se extienda por los ranchos de Texas.


Datos del ripeo

DVD-Rip CD/DVD 1
Video Codec DivX Video Bitrate 854 kb/s
Audio Codec MP3 Audio Bitrate 96 kb/s
FPS 448×192


Elink de la pelicula.


eD2K link The.Rare.Breed.1966.DVDRip.DivX.Spanish.English.by.Minyatur.[DivXForever].avi [700.97 Mb] 

Elink subtitulos en idioma ingles.

eD2K link The_Rare_Breed_(1966)_-_DVDRip_-_23.976fps_-_1CD_-_srt_-_EN_[DivXForever].zip [34.6 Kb] 

davinci14 escribió:Subtítulos en español aquí: http://www.subdivx.com/X7XMTEzNTI2X-des ... 6-X2X.html.


elquetuquieras

 [ Add all 2 links to your ed2k client ]
elquetuquieras
Director consagrado
Director consagrado
 
Mensajes: 1019
Registrado: Dom Mar 11, 2007 9:23 pm

Re: The Rare Breed(Andrew V. McLaglen1966)DVDRIp VOSI dual E/I

Notapor davinci14 » Mar Dic 16, 2008 10:04 pm

davinci14
Corregidor de Indias
Corregidor de Indias
 
Mensajes: 3876
Registrado: Sab Jun 23, 2007 7:01 am

Re: The Rare Breed(Andrew V. McLaglen1966)DVDRIp VOSI dual E/I

Notapor heinlein » Mar Dic 16, 2008 11:16 pm

Gracias elquetuquieras y davinci, pincho.
Cine-clásico secuestrado: TOTEM, pásale de una vez la gestión de la web a droid y a chuschao
Avatar de Usuario
heinlein
Director consagrado
Director consagrado
 
Mensajes: 3258
Registrado: Dom Oct 09, 2005 1:03 am

The Rare Breed (Andrew V. McLaglen, 1966) DVDRip VOSE

Notapor shaktimaan » Lun Mar 30, 2009 12:11 am

anchor
The Rare Breed, Una Dama Entre Vaqueros 1966

Imagen


Headstrong widow Martha Price and her daughter with their prize bull travel from England to Texas to sell their bull. Along the way, a drifter, Sam Burnett, helps them on their journey and is tempted to scam them out of their bull. But his growing attraction to Martha and his conscience helps him clear a safe passage for Martha and her daughter.




Código: Seleccionar todo
Filename.......: the.rare.breed.1966.dvdrip.xvid-shakti.avi
Filesize.......: 1,563,510,784 bytes

Runtime........: 1:32:52 (139276 frames)
Video Codec....: XviD 1.1.2 Final (B-VOP//)
Video Bitrate..: 2046 kbps
Aspect Ratio...: 720x304 (2.368)
Framerate......: 25.000 fps
CQM............: EQM-V3LR
B-Vob/Qpel/GMC.: Yes/No/No

Audio Codec....: 0x2000 (Dolby AC3) AC3
Audio Bitrate..: 192kbps 2ch CBR 48000Hz
Interleave.....: 96 ms (2.4 v.frames), preload=96
Audio frames...: Split across interleaves
Language.......: English

Vobsubs........: English(hi),French,Dutch,Czech,Hungarian
                 German,Polish.   




m0ntaraz escribió:Subtítulos para este ripeo, subidos a los sitios habituales:

- Español: Titles || Opensubtitles || Subdivx.
- English: Titles || Opensubtitles.


 [ Add all 2 links to your ed2k client ]
Avatar de Usuario
shaktimaan
Así empezó Hitchcock
Así empezó Hitchcock
 
Mensajes: 48
Registrado: Mié May 21, 2008 1:30 am

Re: The Rare Breed (Andrew V. McLaglen, 1966) DVDRip VOSE

Notapor m0ntaraz » Mié Abr 08, 2009 11:50 pm

Subtítulos para este ripeo, subidos a los sitios habituales:

- Español: Titles || Opensubtitles || Subdivx.
- English: Titles || Opensubtitles.

Thanks, shakti.

:hola:
m0ntaraz
Cinéfil@
Cinéfil@
 
Mensajes: 97
Registrado: Lun Feb 05, 2007 9:36 am

Re: The Rare Breed (Andrew McLaglen, 1966) DVDRip Dual SE

Notapor locotus » Mar Sep 22, 2009 11:06 pm

He borrado la solicitud que habia puesto, ya que baje un archivo de 700MB,
con esta pinta:
Imagen

Imagen

Imagen

Imagen

Estos datos:

Spoiler: +
General
Complete name : The Rare Breed.avi
Format : AVI
Format/Info : Audio Video Interleave
File size : 698 MiB
Duration : 1h 32mn
Overall bit rate : 1 051 Kbps
Writing application : VirtualDubMod 1.5.10.2 (build 2540/release)
Writing library : VirtualDubMod build 2540/release

Video
ID : 0
Format : MPEG-4 Visual
Format profile : AdvancedSimple@L5
Format settings, BVOP : Yes
Format settings, QPel : No
Format settings, GMC : No warppoints
Format settings, Matrix : Default (H.263)
Muxing mode : Packed bitstream
Codec ID : XVID
Codec ID/Hint : XviD
Duration : 1h 32mn
Bit rate : 890 Kbps
Width : 720 pixels
Height : 304 pixels
Display aspect ratio : 2.35:1
Frame rate : 25.000 fps
Resolution : 24 bits
Colorimetry : 4:2:0
Scan type : Progressive
Bits/(Pixel*Frame) : 0.163
Stream size : 591 MiB (85%)
Writing library : XviD 1.2.0.dev47 (UTC 2006-11-01)

Audio
ID : 1
Format : MPEG Audio
Format version : Version 1
Format profile : Layer 3
Codec ID : 55
Codec ID/Hint : MP3
Duration : 1h 32mn
Bit rate mode : Variable
Bit rate : 148 Kbps
Nominal bit rate : 160 Kbps
Channel(s) : 2 channels
Sampling rate : 48.0 KHz
Resolution : 16 bits
Stream size : 98.5 MiB (14%)
Alignment : Aligned on interleaves
Interleave, duration : 24 ms (0.60 video frame)
Interleave, preload duration : 124 ms
Writing library : LAME3.90.
Encoding settings : -m j -V 4 -q 2 -lowpass 18 --abr 160


Y al que tanto el audio castellano y los subtitulos le caen perfectamente.

MP3 128Kbits 48000Khz Stereo
eD2K link Audio.Esp.Sincronizado.The.Rare.Breed.mp3 [85.00 Mb] 

eD2K link The Rare Breed.avi [697.86 Mb] 


 [ Add all 2 links to your ed2k client ]
¿Zorrilla?: “Los muertos que vos matáis gozan de buena salud”.
Avatar de Usuario
locotus
Director consagrado
Director consagrado
 
Mensajes: 1350
Registrado: Mié Feb 15, 2006 3:14 pm
Ubicación: Adelante... Houston

Re: The Rare Breed (Andrew McLaglen, 1966) Ver índice

Notapor oski » Jue Sep 08, 2011 1:58 pm

Gran elenco para este mediocre director; vamos a ver qué tal.
Muchas gracias, shaktimaan, y mOntaraz por los subtítulos. :good:
oski
Director de culto
Director de culto
 
Mensajes: 947
Registrado: Dom Dic 14, 2008 4:34 pm


Volver a Largos Modernos

¿Quién está conectado?

Usuarios navegando por este Foro: No hay usuarios registrados visitando el Foro y 2 invitados